VERSION	0.00.00	1.03.00
FES_MODE	0
BPM_DEF	160.000	160.000	160.000	160.000
MET_DEF	4	4
RESOLUTION	384
CLK_DEF	384
COMPATIBLE_CODE	MA2

BPM	0	0	160.000
MET	0	0	4	4

TAP	2	96	0
TAP	2	288	1
TAP	3	96	0
TAP	3	288	1
TAP	4	96	0
TAP	4	288	1
TAP	5	96	0
BRK	5	288	7
TAP	6	96	7
TAP	6	288	6
TAP	7	96	7
TAP	7	288	6
TAP	8	96	7
TAP	8	288	0
TAP	9	96	1
TAP	9	288	2
TAP	10	96	4
TAP	10	288	4
TAP	11	96	3
TAP	11	288	3
TAP	12	96	4
TAP	12	288	4
TAP	13	96	0
BRK	13	192	0
TAP	14	0	1
TAP	14	192	2
TAP	15	0	1
TAP	15	96	1
TAP	15	192	1
TAP	16	0	7
TAP	16	192	6
TAP	17	0	7
TAP	17	96	7
TAP	17	192	0
TAP	17	192	7
TAP	18	96	0
TAP	18	288	1
TAP	19	96	2
TAP	19	288	3
TAP	20	96	2
TAP	20	288	1
TAP	21	96	0
TAP	21	288	7
HLD	22	0	7	192
HLD	23	0	6	192
TAP	24	0	7
TAP	24	192	0
TAP	25	0	1
TAP	25	192	2
TAP	26	0	1
TAP	26	96	1
TAP	27	0	0
TAP	27	96	0
TAP	28	96	7
TAP	28	288	6
TAP	29	96	7
TAP	29	288	6
HLD	30	96	5	192
HLD	31	96	4	192
TAP	32	96	5
TAP	32	288	6
TAP	33	96	7
BRK	33	288	0
TAP	34	96	0
TAP	34	288	1
TAP	35	96	0
TAP	35	288	1
TAP	36	96	0
TAP	36	288	1
TAP	37	96	0
BRK	37	288	7
TAP	38	96	7
TAP	38	288	6
TAP	39	96	7
TAP	39	288	6
TAP	40	96	7
TAP	40	288	0
TAP	41	96	1
STR	41	288	2
SI_	41	288	2	96	192	7
STR	43	288	6
SI_	43	288	6	96	192	3
STR	45	288	4
SI_	45	288	4	96	192	7
STR	47	288	0
SI_	47	288	0	96	192	3
TAP	49	96	6
BRK	49	288	6
TAP	50	96	0
TAP	50	288	7
TAP	51	96	6
TAP	51	288	7
TAP	52	96	6
TAP	52	288	5
TAP	53	96	4
TAP	53	288	3
HLD	54	96	2	192
HLD	55	96	1	192
TAP	56	96	0
TAP	56	144	0
TAP	56	288	0
TAP	57	96	7
TAP	57	144	7
TAP	57	288	7
TAP	58	96	7
TAP	58	288	0
TAP	59	96	1
TAP	59	288	0
TAP	60	96	7
TAP	60	288	6
TAP	61	96	5
TAP	61	288	4
HLD	62	96	5	192
HLD	63	96	6	192
TAP	64	96	6
TAP	64	288	0
BRK	65	0	0
TAP	66	96	0
TAP	66	288	1
TAP	67	96	0
TAP	67	288	1
TAP	68	96	0
TAP	68	288	1
TAP	69	96	0
BRK	69	288	7
TAP	70	96	7
TAP	70	288	6
TAP	71	96	7
TAP	71	288	6
TAP	72	96	7
TAP	72	288	0
TAP	73	96	1
TAP	73	288	2
TAP	74	96	4
TAP	74	288	4
TAP	75	96	3
TAP	75	288	3
TAP	76	96	4
TAP	76	288	4
TAP	77	96	0
BRK	77	192	0
TAP	78	0	1
TAP	78	192	2
TAP	79	0	1
TAP	79	96	1
TAP	79	192	1
TAP	80	0	7
TAP	80	192	6
TAP	81	0	7
TAP	81	96	7
TAP	81	192	0
TAP	81	192	7

T_REC_TAP	128
T_REC_BRK	8
T_REC_XTP	0
T_REC_HLD	8
T_REC_XHO	0
T_REC_STR	4
T_REC_BST	0
T_REC_XST	0
T_REC_TTP	0
T_REC_THO	0
T_REC_SLD	4
T_REC_ALL	152
T_NUM_TAP	132
T_NUM_BRK	8
T_NUM_HLD	8
T_NUM_SLD	4
T_NUM_ALL	152
T_JUDGE_TAP	140
T_JUDGE_HLD	32
T_JUDGE_SLD	4
T_JUDGE_ALL	176
TTM_EACHPAIRS	2
TTM_SCR_TAP	66000
TTM_SCR_BRK	20800
TTM_SCR_HLD	8000
TTM_SCR_SLD	6000
TTM_SCR_ALL	100800
TTM_SCR_S	97000
TTM_SCR_SS	100000
TTM_RAT_ACV	10080

