VERSION	0.00.00	1.03.00
FES_MODE	0
BPM_DEF	175.000	175.000	175.000	175.000
MET_DEF	4	4
RESOLUTION	384
CLK_DEF	384
COMPATIBLE_CODE	MA2

BPM	0	0	175.000
MET	0	0	4	4

TAP	1	0	0
TAP	1	48	0
TAP	1	96	0
TAP	1	192	1
TAP	1	240	1
TAP	1	288	1
TAP	2	0	7
TAP	2	24	6
TAP	2	48	5
TAP	2	72	4
TAP	2	96	3
TAP	2	120	2
TAP	2	144	1
TAP	2	168	0
BRK	2	192	7
TAP	3	0	0
TAP	3	48	1
TAP	3	96	0
TAP	3	144	0
TAP	3	192	7
TAP	3	240	6
TAP	3	288	5
TAP	3	336	4
TAP	4	0	5
TAP	4	48	0
TAP	4	96	3
TAP	4	144	6
TAP	4	192	1
TAP	4	240	4
TAP	4	288	7
TAP	5	0	0
TAP	5	48	1
TAP	5	96	2
TAP	5	144	1
TAP	5	192	0
TAP	5	240	7
TAP	5	288	6
TAP	5	336	5
TAP	6	0	3
TAP	6	0	4
TAP	6	48	2
TAP	6	96	2
TAP	6	96	6
TAP	6	144	6
TAP	6	192	0
TAP	6	192	6
TAP	6	240	0
TAP	6	288	0
TAP	6	288	7
TAP	6	336	1
TAP	7	0	2
TAP	7	48	1
TAP	7	96	2
TAP	7	144	2
TAP	7	192	3
TAP	7	240	4
TAP	7	288	5
TAP	7	336	6
TAP	8	0	7
TAP	8	48	4
TAP	8	96	1
TAP	8	144	6
TAP	8	192	3
TAP	8	240	0
TAP	8	288	5
TAP	9	0	5
TAP	9	0	7
TAP	9	48	6
BRK	9	96	0
BRK	9	96	6
TAP	9	192	0
TAP	9	192	2
TAP	9	240	1
BRK	9	288	1
BRK	9	288	7
TAP	10	0	6
TAP	10	0	7
TAP	10	48	6
TAP	10	96	5
TAP	10	96	6
TAP	10	144	5
TAP	10	192	4
TAP	10	192	5
TAP	10	240	4
TAP	10	288	3
TAP	10	288	4
TAP	10	336	3
HLD	11	0	2	192
TAP	11	96	7
TAP	11	192	6
TAP	11	240	5
TAP	11	288	4
TAP	11	336	3
HLD	12	0	1	192
TAP	12	96	4
TAP	12	192	5
TAP	12	240	6
TAP	12	288	7
TAP	12	336	0
HLD	13	0	2	192
TAP	13	96	1
TAP	13	192	7
TAP	13	240	6
TAP	13	288	5
TAP	13	336	4
STR	14	0	3
SI_	14	0	3	96	48	7
STR	14	96	5
SI_	14	96	5	96	48	0
STR	14	192	2
SI_	14	192	2	96	48	7
HLD	15	0	5	192
TAP	15	96	0
TAP	15	192	1
TAP	15	240	2
TAP	15	288	3
TAP	15	336	4
HLD	16	0	6	192
TAP	16	96	3
TAP	16	192	2
TAP	16	240	1
TAP	16	288	0
TAP	16	336	7
HLD	17	0	5	192
TAP	17	96	6
TAP	17	192	0
TAP	17	240	1
TAP	17	288	2
TAP	17	336	3
TAP	18	0	2
TAP	18	48	1
TAP	18	96	0
TAP	18	144	7
TAP	18	192	6
TAP	19	0	7
STR	19	48	7
SI_	19	48	7	96	48	4
STR	19	144	0
SI_	19	144	0	96	48	5
STR	19	240	7
SI_	19	240	7	96	48	2
STR	19	336	0
SI_	19	336	0	96	48	3
STR	20	48	7
SI_	20	48	7	96	48	4
STR	20	144	0
SI_	20	144	0	96	48	5
STR	20	240	7
SI_	20	240	7	96	48	2
STR	20	336	0
SI_	20	336	0	96	48	3
STR	21	48	7
SI_	21	48	7	96	48	4
STR	21	144	0
SI_	21	144	0	96	48	5
STR	21	240	7
SI_	21	240	7	96	48	2
TAP	22	0	1
TAP	22	48	0
TAP	22	96	7
TAP	22	144	6
TAP	22	192	7
TAP	22	240	0
TAP	22	288	1
TAP	22	336	2
TAP	23	0	3
STR	23	48	3
SI_	23	48	3	96	48	0
STR	23	144	4
SI_	23	144	4	96	48	1
STR	23	240	3
SI_	23	240	3	96	48	6
STR	23	336	4
SI_	23	336	4	96	48	7
STR	24	48	3
SI_	24	48	3	96	48	0
STR	24	144	4
SI_	24	144	4	96	48	1
STR	24	240	3
SI_	24	240	3	96	48	6
STR	24	336	4
SI_	24	336	4	96	48	7
STR	25	48	3
SI_	25	48	3	96	48	0
STR	25	144	4
SI_	25	144	4	96	48	1
STR	25	240	3
SI_	25	240	3	96	48	6
TAP	26	0	0
TAP	26	48	1
TAP	26	96	2
TAP	26	144	1
BRK	26	192	0
TAP	27	0	3
TAP	27	0	6
TAP	27	96	0
TAP	27	96	5
TAP	27	192	2
TAP	27	192	7
TAP	27	288	1
TAP	27	288	4
TAP	28	0	5
TAP	28	48	6
TAP	28	96	5
TAP	28	144	4
TAP	28	192	3
TAP	28	240	2
TAP	28	288	1
TAP	29	0	2
TAP	29	0	7
TAP	29	96	1
TAP	29	96	4
TAP	29	192	3
TAP	29	192	6
TAP	29	288	0
TAP	29	288	5
TAP	30	0	6
TAP	30	48	5
TAP	30	96	6
TAP	30	144	7
TAP	30	192	0
TAP	30	240	1
TAP	30	288	2
TAP	31	0	1
TAP	31	0	4
TAP	31	96	2
TAP	31	96	7
TAP	31	192	0
TAP	31	192	5
TAP	31	288	3
TAP	31	288	6
TAP	32	0	2
TAP	32	48	1
TAP	32	96	2
TAP	32	144	3
TAP	32	192	4
TAP	32	240	5
TAP	32	288	6
TAP	33	0	0
TAP	33	0	5
TAP	33	96	3
TAP	33	96	6
TAP	33	192	1
TAP	33	192	4
TAP	33	288	2
TAP	33	288	7
TAP	34	0	1
TAP	34	48	2
TAP	34	96	1
TAP	34	144	0
TAP	34	192	7
TAP	34	240	6
TAP	34	288	5
TAP	35	0	5
TAP	35	0	6
TAP	35	48	7
TAP	35	72	1
TAP	35	96	7
TAP	35	144	1
TAP	35	168	3
TAP	35	192	1
TAP	35	240	3
TAP	35	264	5
TAP	35	288	3
TAP	36	0	5
TAP	36	48	6
TAP	36	96	5
TAP	36	144	4
TAP	36	192	3
TAP	36	240	2
TAP	36	288	1
TAP	37	0	1
TAP	37	0	2
TAP	37	48	3
TAP	37	72	5
TAP	37	96	3
TAP	37	144	5
TAP	37	168	7
TAP	37	192	5
TAP	37	240	7
TAP	37	264	1
TAP	37	288	7
TAP	38	0	6
TAP	38	48	5
TAP	38	96	6
TAP	38	144	7
TAP	38	192	0
TAP	38	240	1
TAP	38	288	2
TAP	39	0	1
TAP	39	0	2
TAP	39	48	0
TAP	39	72	6
TAP	39	96	0
TAP	39	144	6
TAP	39	168	4
TAP	39	192	6
TAP	39	240	4
TAP	39	264	2
TAP	39	288	4
TAP	40	0	2
TAP	40	48	1
TAP	40	96	2
TAP	40	144	3
TAP	40	192	4
TAP	40	240	5
TAP	40	288	6
TAP	41	0	6
TAP	41	24	7
TAP	41	48	6
TAP	41	72	7
TAP	41	96	6
TAP	41	120	5
TAP	41	144	6
TAP	41	168	5
TAP	41	192	4
TAP	41	216	5
TAP	41	240	4
TAP	41	264	5
TAP	41	288	4
TAP	42	0	1
TAP	42	48	2
TAP	42	96	1
TAP	42	144	0
TAP	42	192	7
TAP	42	240	6
TAP	42	288	5
TAP	43	0	0
TAP	43	0	7
TAP	43	48	1
TAP	43	96	2
TAP	43	144	1
TAP	43	192	0
TAP	43	192	7
TAP	43	240	6
TAP	43	288	5
TAP	43	336	4
TAP	44	0	3
TAP	44	0	4
TAP	44	48	2
TAP	44	96	1
TAP	44	144	0
TAP	44	192	7
BRK	44	240	0
BRK	44	240	6
BRK	44	288	1
BRK	44	288	7
HLD	45	0	2	192
TAP	45	96	7
TAP	45	192	6
TAP	45	240	5
TAP	45	288	4
TAP	45	336	3
HLD	46	0	1	192
TAP	46	96	4
TAP	46	192	5
TAP	46	240	6
TAP	46	288	7
TAP	46	336	0
HLD	47	0	2	192
TAP	47	96	1
TAP	47	192	7
TAP	47	240	6
TAP	47	288	5
TAP	47	336	4
STR	48	0	3
SI_	48	0	3	96	48	7
STR	48	96	5
SI_	48	96	5	96	48	0
STR	48	192	2
SI_	48	192	2	96	48	7
HLD	49	0	5	192
TAP	49	96	0
TAP	49	192	1
TAP	49	240	2
TAP	49	288	3
TAP	49	336	4
HLD	50	0	6	192
TAP	50	96	3
TAP	50	192	2
TAP	50	240	1
TAP	50	288	0
TAP	50	336	7
HLD	51	0	5	192
TAP	51	96	6
TAP	51	192	0
TAP	51	240	1
TAP	51	288	2
TAP	51	336	3
TAP	52	0	2
TAP	52	48	1
TAP	52	96	0
TAP	52	144	7
TAP	52	192	6
TAP	53	0	7
STR	53	48	7
SI_	53	48	7	96	48	4
STR	53	144	0
SI_	53	144	0	96	48	5
STR	53	240	7
SI_	53	240	7	96	48	2
STR	53	336	0
SI_	53	336	0	96	48	3
STR	54	48	7
SI_	54	48	7	96	48	4
STR	54	144	0
SI_	54	144	0	96	48	5
STR	54	240	7
SI_	54	240	7	96	48	2
STR	54	336	0
SI_	54	336	0	96	48	3
STR	55	48	7
SI_	55	48	7	96	48	4
STR	55	144	0
SI_	55	144	0	96	48	5
STR	55	240	7
SI_	55	240	7	96	48	2
TAP	56	0	1
TAP	56	48	0
TAP	56	96	7
TAP	56	144	6
TAP	56	192	7
TAP	56	240	0
TAP	56	288	1
TAP	56	336	2
TAP	57	0	3
STR	57	48	3
SI_	57	48	3	96	48	0
STR	57	144	4
SI_	57	144	4	96	48	1
STR	57	240	3
SI_	57	240	3	96	48	6
STR	57	336	4
SI_	57	336	4	96	48	7
STR	58	48	3
SI_	58	48	3	96	48	0
STR	58	144	4
SI_	58	144	4	96	48	1
STR	58	240	3
SI_	58	240	3	96	48	6
STR	58	336	4
SI_	58	336	4	96	48	7
STR	59	48	3
SI_	59	48	3	96	48	0
STR	59	144	4
SI_	59	144	4	96	48	1
STR	59	240	3
SI_	59	240	3	96	48	6
TAP	60	0	0
TAP	60	48	1
TAP	60	96	2
TAP	60	144	1
BRK	60	192	0
TAP	61	0	3
TAP	61	0	6
TAP	61	96	0
TAP	61	96	5
TAP	61	192	2
TAP	61	192	7
TAP	61	288	1
TAP	61	288	4
TAP	62	0	5
TAP	62	48	6
TAP	62	96	5
TAP	62	144	4
TAP	62	192	3
TAP	62	240	2
TAP	62	288	1
TAP	63	0	2
TAP	63	0	7
TAP	63	96	1
TAP	63	96	4
TAP	63	192	3
TAP	63	192	6
TAP	63	288	0
TAP	63	288	5
TAP	64	0	6
TAP	64	48	5
TAP	64	96	6
TAP	64	144	7
TAP	64	192	0
TAP	64	240	1
TAP	64	288	2
TAP	65	0	1
TAP	65	0	4
TAP	65	96	2
TAP	65	96	7
TAP	65	192	0
TAP	65	192	5
TAP	65	288	3
TAP	65	288	6
TAP	66	0	2
TAP	66	48	1
TAP	66	96	2
TAP	66	144	3
TAP	66	192	4
TAP	66	240	5
TAP	66	288	6
TAP	67	0	0
TAP	67	0	5
TAP	67	96	3
TAP	67	96	6
TAP	67	192	1
TAP	67	192	4
TAP	67	288	2
TAP	67	288	7
TAP	68	0	1
TAP	68	48	2
TAP	68	96	1
TAP	68	144	0
TAP	68	192	7
TAP	68	240	6
TAP	68	288	5
TAP	69	0	5
TAP	69	0	6
TAP	69	48	7
TAP	69	72	1
TAP	69	96	7
TAP	69	144	1
TAP	69	168	3
TAP	69	192	1
TAP	69	240	3
TAP	69	264	5
TAP	69	288	3
TAP	70	0	5
TAP	70	48	6
TAP	70	96	5
TAP	70	144	4
TAP	70	192	3
TAP	70	240	2
TAP	70	288	1
TAP	71	0	1
TAP	71	0	2
TAP	71	48	3
TAP	71	72	5
TAP	71	96	3
TAP	71	144	5
TAP	71	168	7
TAP	71	192	5
TAP	71	240	7
TAP	71	264	1
TAP	71	288	7
TAP	72	0	6
TAP	72	48	5
TAP	72	96	6
TAP	72	144	7
TAP	72	192	0
TAP	72	240	1
TAP	72	288	2
TAP	73	0	1
TAP	73	0	2
TAP	73	48	0
TAP	73	72	6
TAP	73	96	0
TAP	73	144	6
TAP	73	168	4
TAP	73	192	6
TAP	73	240	4
TAP	73	264	2
TAP	73	288	4
TAP	74	0	2
TAP	74	48	1
TAP	74	96	2
TAP	74	144	3
TAP	74	192	4
TAP	74	240	5
TAP	74	288	6
TAP	75	0	6
TAP	75	24	7
TAP	75	48	6
TAP	75	72	7
TAP	75	96	6
TAP	75	120	5
TAP	75	144	6
TAP	75	168	5
TAP	75	192	4
TAP	75	216	5
TAP	75	240	4
TAP	75	264	5
TAP	75	288	4
TAP	76	0	1
TAP	76	48	2
TAP	76	96	1
TAP	76	144	0
TAP	76	192	7
TAP	76	240	6
TAP	76	288	5
TAP	77	0	0
TAP	77	0	7
TAP	77	48	1
TAP	77	96	2
TAP	77	144	1
TAP	77	192	0
TAP	77	192	7
TAP	77	240	6
TAP	77	288	5
TAP	77	336	4
TAP	78	0	3
TAP	78	0	4
TAP	78	48	2
TAP	78	96	1
TAP	78	144	0
TAP	78	192	7
BRK	78	240	0
BRK	78	240	6
BRK	78	288	1
BRK	78	288	7

T_REC_TAP	480
T_REC_BRK	15
T_REC_XTP	0
T_REC_HLD	12
T_REC_XHO	0
T_REC_STR	50
T_REC_BST	0
T_REC_XST	0
T_REC_TTP	0
T_REC_THO	0
T_REC_SLD	50
T_REC_ALL	607
T_NUM_TAP	530
T_NUM_BRK	15
T_NUM_HLD	12
T_NUM_SLD	50
T_NUM_ALL	607
T_JUDGE_TAP	545
T_JUDGE_HLD	48
T_JUDGE_SLD	50
T_JUDGE_ALL	643
TTM_EACHPAIRS	60
TTM_SCR_TAP	265000
TTM_SCR_BRK	39000
TTM_SCR_HLD	12000
TTM_SCR_SLD	75000
TTM_SCR_ALL	391000
TTM_SCR_S	377850
TTM_SCR_SS	389500
TTM_RAT_ACV	10038

