VERSION	0.00.00	1.03.00
FES_MODE	0
BPM_DEF	175.000	175.000	175.000	175.000
MET_DEF	4	4
RESOLUTION	384
CLK_DEF	384
COMPATIBLE_CODE	MA2

BPM	0	0	175.000
MET	0	0	4	4

TAP	1	0	0
TAP	1	48	0
TAP	1	96	7
TAP	1	144	7
TAP	1	192	0
TAP	1	240	0
TAP	1	288	7
TAP	1	336	7
TAP	2	0	0
TAP	2	48	7
TAP	2	96	0
TAP	2	144	7
STR	2	192	0
SI_	2	192	0	96	48	4
TAP	3	0	1
TAP	3	96	2
TAP	3	192	3
TAP	3	240	4
TAP	3	288	3
TAP	4	0	5
TAP	4	96	6
TAP	4	192	7
TAP	4	240	0
TAP	4	288	7
TAP	5	0	7
TAP	5	96	3
TAP	5	192	0
TAP	5	288	4
TAP	6	0	2
TAP	6	48	3
TAP	6	96	2
TAP	6	144	3
TAP	6	192	5
TAP	6	240	4
TAP	6	288	5
TAP	6	336	4
TAP	7	0	6
TAP	7	96	5
TAP	7	192	4
TAP	7	240	3
TAP	7	288	4
TAP	8	0	2
TAP	8	96	1
TAP	8	192	0
TAP	8	240	7
TAP	8	288	0
TAP	9	0	0
TAP	9	96	4
TAP	9	192	7
TAP	9	288	3
TAP	10	0	7
TAP	10	48	6
TAP	10	96	7
TAP	10	144	6
TAP	10	192	0
TAP	10	240	1
TAP	10	288	0
TAP	10	336	1
TAP	11	0	6
TAP	11	96	6
TAP	11	192	7
TAP	11	240	6
TAP	11	288	0
TAP	11	336	7
TAP	12	0	1
TAP	12	96	1
TAP	12	192	0
TAP	12	240	1
TAP	12	288	7
TAP	12	336	0
TAP	13	0	6
TAP	13	96	6
TAP	13	192	6
TAP	13	240	1
TAP	13	288	0
TAP	13	336	7
TAP	14	0	6
TAP	14	48	2
TAP	14	96	1
TAP	14	144	0
TAP	14	192	7
TAP	14	240	6
TAP	14	288	5
TAP	14	336	4
TAP	15	0	1
TAP	15	96	1
TAP	15	192	0
TAP	15	240	1
TAP	15	288	7
TAP	15	336	0
TAP	16	0	6
TAP	16	96	6
TAP	16	192	7
TAP	16	240	6
TAP	16	288	0
TAP	16	336	7
TAP	17	0	1
TAP	17	96	1
TAP	17	192	1
TAP	17	240	7
TAP	17	288	0
TAP	17	336	6
TAP	18	0	1
TAP	18	48	7
TAP	18	96	0
TAP	18	144	6
TAP	18	192	1
TAP	19	0	0
TAP	19	48	7
TAP	19	144	7
TAP	19	240	6
TAP	19	240	7
TAP	19	336	0
TAP	19	336	7
TAP	20	48	0
TAP	20	48	1
TAP	20	144	0
TAP	20	144	1
TAP	20	240	0
TAP	20	240	7
TAP	20	336	0
TAP	20	336	1
TAP	21	48	0
TAP	21	48	7
TAP	21	144	0
TAP	21	144	7
TAP	21	240	6
TAP	21	240	7
TAP	21	336	0
TAP	21	336	7
TAP	22	48	6
TAP	22	96	7
TAP	22	144	0
TAP	22	192	2
TAP	22	240	1
TAP	22	288	0
TAP	22	336	7
TAP	23	48	0
TAP	23	48	7
TAP	23	144	0
TAP	23	144	7
TAP	23	240	0
TAP	23	240	1
TAP	23	336	0
TAP	23	336	7
TAP	24	48	6
TAP	24	48	7
TAP	24	144	6
TAP	24	144	7
TAP	24	240	0
TAP	24	240	7
TAP	24	336	6
TAP	24	336	7
TAP	25	48	0
TAP	25	48	7
TAP	25	144	0
TAP	25	144	7
TAP	25	240	0
TAP	25	240	1
TAP	25	336	0
TAP	25	336	7
TAP	26	48	1
TAP	26	96	7
TAP	26	144	0
TAP	26	192	6
BRK	27	0	0
BRK	27	0	1
BRK	27	96	0
BRK	27	96	7
BRK	27	192	6
BRK	27	192	7
BRK	27	288	5
BRK	27	288	6
TAP	28	0	5
TAP	28	48	4
TAP	28	96	3
TAP	28	144	2
TAP	28	192	3
TAP	28	240	4
TAP	28	288	5
BRK	29	0	6
BRK	29	0	7
BRK	29	96	0
BRK	29	96	7
BRK	29	192	0
BRK	29	192	1
BRK	29	288	1
BRK	29	288	2
TAP	30	0	2
TAP	30	48	3
TAP	30	96	4
TAP	30	144	5
TAP	30	192	4
TAP	30	240	3
TAP	30	288	3
BRK	31	0	0
BRK	31	0	7
BRK	31	96	6
BRK	31	96	7
BRK	31	192	5
BRK	31	192	6
BRK	31	288	4
BRK	31	288	5
TAP	32	0	3
TAP	32	48	4
TAP	32	96	5
TAP	32	144	2
TAP	32	192	3
TAP	32	240	4
TAP	32	288	5
BRK	33	0	0
BRK	33	0	7
BRK	33	96	0
BRK	33	96	1
BRK	33	192	1
BRK	33	192	2
BRK	33	288	2
BRK	33	288	3
TAP	34	0	6
TAP	34	48	5
TAP	34	96	4
TAP	34	144	1
TAP	34	192	2
TAP	34	240	3
TAP	34	288	3
BRK	35	0	1
BRK	35	0	7
BRK	35	96	0
BRK	35	96	7
BRK	35	192	0
BRK	35	192	6
BRK	35	288	6
BRK	35	288	7
TAP	36	0	3
TAP	36	48	4
TAP	36	96	5
TAP	36	144	4
TAP	36	192	2
TAP	36	240	3
TAP	36	288	4
BRK	37	0	0
BRK	37	0	6
BRK	37	96	0
BRK	37	96	7
BRK	37	192	1
BRK	37	192	7
BRK	37	288	0
BRK	37	288	1
TAP	38	0	3
TAP	38	48	2
TAP	38	96	1
TAP	38	144	3
TAP	38	192	4
TAP	38	240	3
TAP	38	288	3
BRK	39	0	5
BRK	39	0	7
BRK	39	96	0
BRK	39	96	6
BRK	39	192	1
BRK	39	192	7
BRK	39	288	0
BRK	39	288	2
TAP	40	0	3
TAP	40	48	4
TAP	40	96	5
TAP	40	144	3
TAP	40	192	2
TAP	40	240	4
TAP	40	288	5
BRK	41	0	0
BRK	41	0	2
BRK	41	96	1
BRK	41	96	7
BRK	41	192	0
BRK	41	192	6
BRK	41	288	5
BRK	41	288	7
TAP	42	0	3
TAP	42	48	4
TAP	42	96	5
TAP	42	144	6
TAP	42	192	0
TAP	42	240	7
TAP	42	288	7
TAP	43	0	1
TAP	43	48	1
TAP	43	96	6
TAP	43	144	6
TAP	43	192	1
TAP	43	240	1
TAP	43	288	6
TAP	43	336	6
TAP	44	0	0
TAP	44	48	7
TAP	44	96	0
TAP	44	144	7
STR	44	192	0
SI_	44	192	0	96	48	4
HLD	45	0	2	96
HLD	45	96	5	96
TAP	45	192	3
TAP	45	240	4
TAP	45	288	2
TAP	45	336	5
HLD	46	0	1	96
HLD	46	96	6	96
TAP	46	192	0
TAP	46	240	7
TAP	46	288	1
TAP	46	336	6
HLD	47	0	2	96
HLD	47	96	5	96
TAP	47	192	3
TAP	47	240	4
TAP	47	288	2
TAP	47	336	5
TAP	48	0	1
TAP	48	48	5
TAP	48	96	6
TAP	48	144	7
TAP	48	192	0
TAP	48	240	1
TAP	48	288	2
TAP	48	336	3
HLD	49	0	4	96
HLD	49	96	3	96
TAP	49	192	5
TAP	49	240	2
TAP	49	288	6
TAP	49	336	1
HLD	50	0	7	96
HLD	50	96	0	96
TAP	50	192	6
TAP	50	240	1
TAP	50	288	5
TAP	50	336	2
HLD	51	0	4	96
HLD	51	96	3	96
TAP	51	192	5
TAP	51	240	2
TAP	51	288	6
TAP	51	336	1
TAP	52	0	7
TAP	52	48	1
TAP	52	96	5
TAP	52	144	3
TAP	52	192	4
TAP	53	0	7
TAP	53	48	7
TAP	53	96	0
TAP	53	144	0
TAP	53	192	7
TAP	53	240	7
TAP	53	288	0
TAP	53	336	0
TAP	54	0	1
TAP	54	48	1
TAP	54	96	0
TAP	54	144	0
TAP	54	192	7
TAP	54	240	7
TAP	54	288	0
TAP	54	336	0
TAP	55	0	6
TAP	55	48	6
TAP	55	96	7
TAP	55	144	7
TAP	55	192	0
TAP	55	240	0
TAP	55	288	7
TAP	55	336	7
TAP	56	0	6
TAP	56	48	2
TAP	56	96	1
TAP	56	144	0
TAP	56	192	7
TAP	56	240	6
TAP	56	288	5
TAP	56	336	4
TAP	57	0	0
TAP	57	48	0
TAP	57	96	6
TAP	57	144	6
TAP	57	192	1
TAP	57	240	1
TAP	57	288	7
TAP	57	336	7
TAP	58	0	6
TAP	58	48	6
TAP	58	96	7
TAP	58	144	7
TAP	58	192	0
TAP	58	240	7
TAP	58	288	0
TAP	58	336	0
TAP	59	0	1
TAP	59	48	1
TAP	59	96	0
TAP	59	144	0
TAP	59	192	7
TAP	59	240	0
TAP	59	288	6
TAP	59	336	6
TAP	60	0	1
TAP	60	48	7
TAP	60	96	0
TAP	60	144	6
TAP	60	192	6
BRK	61	0	0
BRK	61	0	1
BRK	61	96	6
BRK	61	96	7
BRK	61	192	4
BRK	61	192	5
BRK	61	288	2
BRK	61	288	3
TAP	62	0	0
TAP	62	48	1
TAP	62	96	2
TAP	62	144	7
TAP	62	192	6
TAP	62	240	5
TAP	62	288	4
BRK	63	0	6
BRK	63	0	7
BRK	63	96	0
BRK	63	96	1
BRK	63	192	2
BRK	63	192	3
BRK	63	288	4
BRK	63	288	5
TAP	64	0	7
TAP	64	48	6
TAP	64	96	5
TAP	64	144	0
TAP	64	192	1
TAP	64	240	2
TAP	64	288	2
BRK	65	0	0
BRK	65	0	7
BRK	65	96	5
BRK	65	96	6
BRK	65	192	3
BRK	65	192	4
BRK	65	288	1
BRK	65	288	2
TAP	66	0	0
TAP	66	48	1
TAP	66	96	0
TAP	66	144	7
TAP	66	192	6
TAP	66	240	5
TAP	66	288	4
BRK	67	0	0
BRK	67	0	7
BRK	67	96	1
BRK	67	96	2
BRK	67	192	3
BRK	67	192	4
BRK	67	288	5
BRK	67	288	6
TAP	68	0	7
TAP	68	48	6
TAP	68	96	7
TAP	68	144	0
TAP	68	192	2
TAP	68	240	1
TAP	68	288	1
BRK	69	0	0
BRK	69	0	7
BRK	69	96	1
BRK	69	96	2
BRK	69	192	5
BRK	69	192	6
BRK	69	288	3
BRK	69	288	4
TAP	70	0	1
TAP	70	48	2
TAP	70	96	3
TAP	70	144	6
TAP	70	192	5
TAP	70	240	4
TAP	70	288	3
BRK	71	0	0
BRK	71	0	7
BRK	71	96	5
BRK	71	96	6
BRK	71	192	1
BRK	71	192	2
BRK	71	288	3
BRK	71	288	4
TAP	72	0	6
TAP	72	48	6
TAP	72	96	5
TAP	72	144	1
TAP	72	192	2
TAP	72	240	3
TAP	72	288	3
BRK	73	0	0
BRK	73	0	6
BRK	73	96	2
BRK	73	96	4
BRK	73	192	1
BRK	73	192	7
BRK	73	288	3
BRK	73	288	5
TAP	74	0	2
TAP	74	48	3
TAP	74	96	2
TAP	74	144	5
TAP	74	192	4
TAP	74	240	5
TAP	74	288	3
BRK	75	0	1
BRK	75	0	7
BRK	75	96	5
BRK	75	96	7
BRK	75	192	3
BRK	75	192	5
BRK	75	288	1
BRK	75	288	3
TAP	76	0	7
TAP	76	48	6
TAP	76	96	7
TAP	76	144	0
STR	76	192	1
SCL	76	192	1	96	96	6
TAP	77	0	1
TAP	77	48	0
TAP	77	96	7
TAP	77	144	0
TAP	77	192	6
TAP	77	240	7
TAP	77	288	0
TAP	77	336	7
TAP	78	0	0
TAP	78	48	1
TAP	78	96	7
TAP	78	144	6
STR	78	192	0
SI_	78	192	0	96	48	4

T_REC_TAP	394
T_REC_BRK	128
T_REC_XTP	0
T_REC_HLD	12
T_REC_XHO	0
T_REC_STR	4
T_REC_BST	0
T_REC_XST	0
T_REC_TTP	0
T_REC_THO	0
T_REC_SLD	4
T_REC_ALL	542
T_NUM_TAP	398
T_NUM_BRK	128
T_NUM_HLD	12
T_NUM_SLD	4
T_NUM_ALL	542
T_JUDGE_TAP	526
T_JUDGE_HLD	24
T_JUDGE_SLD	4
T_JUDGE_ALL	554
TTM_EACHPAIRS	86
TTM_SCR_TAP	199000
TTM_SCR_BRK	332800
TTM_SCR_HLD	12000
TTM_SCR_SLD	6000
TTM_SCR_ALL	549800
TTM_SCR_S	520900
TTM_SCR_SS	537000
TTM_RAT_ACV	10238

