VERSION	0.00.00	1.03.00
FES_MODE	0
BPM_DEF	175.000	175.000	175.000	175.000
MET_DEF	4	4
RESOLUTION	384
CLK_DEF	384
COMPATIBLE_CODE	MA2

BPM	0	0	175.000
MET	0	0	4	4

TAP	1	0	0
TAP	1	192	0
TAP	2	0	7
TAP	2	96	7
BRK	2	192	7
TAP	3	0	1
TAP	3	192	1
TAP	4	0	2
TAP	4	96	3
TAP	4	192	2
TAP	5	0	1
TAP	5	192	1
TAP	6	0	0
TAP	6	96	0
TAP	6	192	7
TAP	6	288	7
TAP	7	0	6
TAP	7	192	6
TAP	8	0	5
TAP	8	96	4
TAP	8	192	5
TAP	9	0	6
TAP	9	192	7
TAP	10	0	1
TAP	10	96	0
TAP	10	192	7
TAP	10	288	6
STR	11	0	0
SI_	11	0	0	96	96	4
STR	12	0	7
SI_	12	0	7	96	96	3
STR	13	0	1
SI_	13	0	1	96	96	6
TAP	14	0	0
TAP	14	0	7
TAP	14	96	1
TAP	14	96	6
TAP	14	192	0
TAP	14	192	7
STR	15	0	1
SI_	15	0	1	96	96	4
STR	16	0	6
SI_	16	0	6	96	96	3
STR	17	0	2
SI_	17	0	2	96	96	5
TAP	18	0	0
TAP	18	0	7
TAP	18	96	0
TAP	18	96	7
BRK	18	192	1
BRK	18	192	6
TAP	19	0	1
TAP	19	96	2
TAP	19	192	3
TAP	19	288	2
TAP	20	0	1
TAP	20	96	0
TAP	20	192	7
TAP	20	288	0
TAP	21	0	7
TAP	21	96	6
TAP	21	192	5
TAP	21	288	6
TAP	22	0	7
TAP	22	96	0
TAP	22	192	1
TAP	22	288	2
TAP	23	0	1
TAP	23	96	2
TAP	23	192	3
TAP	23	288	2
TAP	24	0	1
TAP	24	96	0
TAP	24	192	7
TAP	24	288	0
TAP	25	0	7
TAP	25	96	6
TAP	25	192	5
TAP	25	288	4
TAP	26	0	2
TAP	26	0	5
TAP	26	96	1
TAP	26	96	6
BRK	26	192	0
BRK	26	192	7
TAP	27	0	0
TAP	27	0	7
TAP	27	96	6
TAP	27	96	7
TAP	27	192	5
TAP	27	192	6
TAP	27	288	4
TAP	27	288	5
TAP	28	0	6
TAP	28	192	7
TAP	29	0	0
TAP	29	0	7
TAP	29	96	0
TAP	29	96	1
TAP	29	192	1
TAP	29	192	2
TAP	29	288	2
TAP	29	288	3
TAP	30	0	1
TAP	30	192	0
STR	31	0	0
SI_	31	0	0	96	96	3
STR	31	192	7
SI_	31	192	7	96	96	4
TAP	32	0	2
TAP	32	192	2
STR	33	0	5
SI_	33	0	5	96	96	2
STR	33	192	1
SI_	33	192	1	96	96	6
TAP	34	0	7
TAP	34	192	5
HLD	35	0	3	96
TAP	35	96	2
HLD	35	192	3	96
TAP	35	288	2
TAP	36	0	1
TAP	36	192	1
HLD	37	0	0	96
TAP	37	96	7
HLD	37	192	0	96
TAP	37	288	7
TAP	38	0	6
TAP	38	192	6
HLD	39	0	5	96
TAP	39	96	4
HLD	39	192	5	96
TAP	39	288	4
TAP	40	0	3
TAP	40	192	3
HLD	41	0	2	96
TAP	41	96	1
HLD	41	192	2	96
TAP	41	288	1
TAP	42	0	0
TAP	42	192	0
TAP	43	0	0
TAP	43	96	7
TAP	43	192	1
TAP	43	288	6
TAP	44	0	2
TAP	44	96	5
BRK	44	192	3
BRK	44	192	4
TAP	45	0	3
TAP	45	96	3
TAP	45	192	3
TAP	46	0	1
TAP	46	96	1
TAP	46	192	1
TAP	47	0	7
TAP	47	96	7
TAP	47	192	7
TAP	48	0	5
TAP	48	96	5
TAP	48	192	5
TAP	48	288	5
TAP	49	0	0
TAP	49	96	1
TAP	49	192	2
TAP	50	0	4
TAP	50	96	5
TAP	50	192	6
TAP	51	0	7
TAP	51	96	0
TAP	51	192	7
TAP	52	0	0
TAP	52	0	7
TAP	52	96	0
TAP	52	96	7
TAP	52	192	0
TAP	52	192	7
TAP	53	0	1
TAP	53	96	2
TAP	53	192	3
TAP	53	288	2
TAP	54	0	1
TAP	54	96	0
TAP	54	192	7
TAP	54	288	0
TAP	55	0	7
TAP	55	96	6
TAP	55	192	5
TAP	55	288	6
TAP	56	0	7
TAP	56	96	0
TAP	56	192	1
TAP	56	288	2
TAP	57	0	1
TAP	57	96	2
TAP	57	192	3
TAP	57	288	2
TAP	58	0	1
TAP	58	96	0
TAP	58	192	7
TAP	58	288	0
TAP	59	0	7
TAP	59	96	6
TAP	59	192	5
TAP	59	288	4
TAP	60	0	2
TAP	60	0	5
TAP	60	96	1
TAP	60	96	6
BRK	60	192	0
BRK	60	192	7
TAP	61	0	0
TAP	61	0	7
TAP	61	96	6
TAP	61	96	7
TAP	61	192	5
TAP	61	192	6
TAP	61	288	4
TAP	61	288	5
TAP	62	0	6
TAP	62	192	7
TAP	63	0	0
TAP	63	0	7
TAP	63	96	0
TAP	63	96	1
TAP	63	192	1
TAP	63	192	2
TAP	63	288	2
TAP	63	288	3
TAP	64	0	1
TAP	64	192	0
STR	65	0	0
SI_	65	0	0	96	96	3
STR	65	192	7
SI_	65	192	7	96	96	4
TAP	66	0	3
TAP	66	96	4
TAP	66	192	2
STR	67	0	0
SI_	67	0	0	96	96	3
STR	67	192	7
SI_	67	192	7	96	96	4
TAP	68	0	1
TAP	68	96	6
TAP	68	192	0
HLD	69	0	2	96
HLD	69	96	1	96
HLD	69	192	0	96
HLD	69	288	7	96
TAP	70	0	6
TAP	70	96	5
TAP	70	192	4
HLD	71	0	2	96
HLD	71	96	5	96
HLD	71	192	1	96
HLD	71	288	6	96
TAP	72	0	7
TAP	72	96	0
TAP	72	192	7
STR	73	0	0
SI_	73	0	0	96	96	3
STR	73	192	7
SI_	73	192	7	96	96	4
TAP	74	0	3
TAP	74	96	4
TAP	74	192	3
STR	75	0	2
SI_	75	0	2	96	96	5
STR	75	192	6
SI_	75	192	6	96	96	1
TAP	76	0	0
TAP	76	96	7
TAP	76	192	0
TAP	77	0	0
TAP	77	0	7
TAP	77	96	1
TAP	77	96	6
TAP	77	192	2
TAP	77	192	5
TAP	77	288	3
TAP	77	288	4
TAP	78	0	2
TAP	78	0	5
TAP	78	96	1
TAP	78	96	6
BRK	78	192	0
BRK	78	192	7

T_REC_TAP	224
T_REC_BRK	11
T_REC_XTP	0
T_REC_HLD	16
T_REC_XHO	0
T_REC_STR	18
T_REC_BST	0
T_REC_XST	0
T_REC_TTP	0
T_REC_THO	0
T_REC_SLD	18
T_REC_ALL	287
T_NUM_TAP	242
T_NUM_BRK	11
T_NUM_HLD	16
T_NUM_SLD	18
T_NUM_ALL	287
T_JUDGE_TAP	253
T_JUDGE_HLD	32
T_JUDGE_SLD	18
T_JUDGE_ALL	303
TTM_EACHPAIRS	39
TTM_SCR_TAP	121000
TTM_SCR_BRK	28600
TTM_SCR_HLD	16000
TTM_SCR_SLD	27000
TTM_SCR_ALL	192600
TTM_SCR_S	185800
TTM_SCR_SS	191500
TTM_RAT_ACV	10057

