VERSION	0.00.00	1.03.00
FES_MODE	0
BPM_DEF	175.000	175.000	175.000	175.000
MET_DEF	4	4
RESOLUTION	384
CLK_DEF	384
COMPATIBLE_CODE	MA2

BPM	0	0	175.000
MET	0	0	4	4

HLD	1	0	0	192
HLD	2	0	7	192
TAP	3	0	0
TAP	4	0	7
TAP	5	0	0
TAP	5	192	0
TAP	6	0	7
TAP	6	192	0
TAP	7	0	1
TAP	8	0	1
TAP	9	0	2
TAP	9	192	2
TAP	10	0	3
TAP	10	192	4
HLD	11	0	5	192
HLD	12	0	6	192
HLD	13	0	7	192
TAP	14	0	0
TAP	14	192	0
HLD	15	0	7	192
HLD	16	0	6	192
TAP	17	0	5
TAP	17	192	5
TAP	18	0	4
TAP	18	96	4
TAP	18	192	4
TAP	19	0	3
TAP	19	192	3
TAP	20	0	2
TAP	20	192	3
TAP	21	0	2
TAP	21	192	1
TAP	22	0	1
TAP	22	96	0
TAP	22	192	1
STR	23	0	0
SI_	23	0	0	96	192	3
STR	24	0	7
SI_	24	0	7	96	192	4
TAP	25	0	5
TAP	25	192	3
TAP	26	0	1
TAP	26	96	1
BRK	26	192	1
TAP	27	0	0
TAP	27	192	0
HLD	28	0	0	192
TAP	29	0	7
TAP	29	192	7
HLD	30	0	7	192
TAP	31	0	0
TAP	31	192	1
HLD	32	0	2	192
TAP	33	0	7
TAP	33	192	6
HLD	34	0	5	192
TAP	35	0	5
TAP	35	192	6
STR	36	0	7
SI_	36	0	7	96	192	4
TAP	37	0	3
TAP	37	192	2
STR	38	0	1
SI_	38	0	1	96	192	6
TAP	39	0	7
TAP	39	192	6
STR	40	0	0
SI_	40	0	0	96	192	3
TAP	41	0	2
TAP	41	192	2
STR	42	0	2
SI_	42	0	2	96	192	5
TAP	43	0	6
TAP	43	192	4
TAP	44	0	2
TAP	44	96	1
BRK	44	192	0
HLD	45	0	0	192
TAP	45	288	1
HLD	46	0	1	192
TAP	46	288	2
HLD	47	0	2	192
TAP	47	288	3
STR	48	0	2
SI_	48	0	2	96	192	5
HLD	49	0	6	192
TAP	49	288	7
HLD	50	0	7	192
TAP	50	288	0
HLD	51	0	1	192
TAP	51	288	2
STR	52	0	1
SI_	52	0	1	96	192	6
TAP	53	0	7
TAP	53	192	7
TAP	54	0	0
TAP	54	192	0
TAP	55	0	1
TAP	55	192	1
TAP	56	0	2
TAP	56	96	2
TAP	56	192	2
TAP	57	0	3
TAP	57	192	3
TAP	58	0	4
TAP	58	192	4
TAP	59	0	5
TAP	59	192	5
TAP	60	0	6
TAP	60	96	6
BRK	60	192	6
TAP	61	0	7
TAP	61	192	7
HLD	62	0	0	192
TAP	63	0	6
TAP	63	192	6
HLD	64	0	1	192
TAP	65	0	0
TAP	65	192	7
HLD	66	0	0	192
TAP	67	0	7
TAP	67	192	0
HLD	68	0	7	192
TAP	69	0	0
TAP	69	192	1
STR	70	0	0
SI_	70	0	0	96	192	3
TAP	71	0	4
TAP	71	192	5
STR	72	0	7
SI_	72	0	7	96	192	4
TAP	73	0	3
TAP	73	192	1
STR	74	0	1
SI_	74	0	1	96	192	6
TAP	75	0	5
TAP	75	192	3
STR	76	0	1
SI_	76	0	1	96	192	5
TAP	77	0	4
TAP	77	96	3
TAP	77	192	2
TAP	77	288	1
TAP	78	0	0
TAP	78	96	7
BRK	78	192	0

T_REC_TAP	97
T_REC_BRK	4
T_REC_XTP	0
T_REC_HLD	21
T_REC_XHO	0
T_REC_STR	12
T_REC_BST	0
T_REC_XST	0
T_REC_TTP	0
T_REC_THO	0
T_REC_SLD	12
T_REC_ALL	146
T_NUM_TAP	109
T_NUM_BRK	4
T_NUM_HLD	21
T_NUM_SLD	12
T_NUM_ALL	146
T_JUDGE_TAP	113
T_JUDGE_HLD	84
T_JUDGE_SLD	12
T_JUDGE_ALL	209
TTM_EACHPAIRS	0
TTM_SCR_TAP	54500
TTM_SCR_BRK	10400
TTM_SCR_HLD	21000
TTM_SCR_SLD	18000
TTM_SCR_ALL	103900
TTM_SCR_S	100400
TTM_SCR_SS	103500
TTM_RAT_ACV	10038

