VERSION	0.00.00	1.03.00
FES_MODE	0
BPM_DEF	162.000	162.000	162.000	162.000
MET_DEF	4	4
RESOLUTION	384
CLK_DEF	384
COMPATIBLE_CODE	MA2

BPM	0	0	162.000
MET	0	0	4	4

STR	1	0	1
SI_	1	0	1	96	96	4
STR	1	48	6
SI_	1	48	6	96	96	3
TAP	2	0	0
TAP	2	48	1
TAP	2	144	3
TAP	2	240	2
TAP	2	288	1
TAP	3	0	7
TAP	3	48	6
TAP	3	144	4
TAP	3	240	5
TAP	3	288	6
TAP	4	0	1
TAP	4	48	6
TAP	4	144	4
TAP	4	240	2
TAP	4	288	5
TAP	5	0	1
TAP	5	0	7
TAP	5	96	1
TAP	5	96	3
TAP	5	192	4
TAP	5	240	5
TAP	5	288	6
TAP	6	0	7
TAP	6	48	6
TAP	6	144	4
TAP	6	240	5
TAP	6	288	6
TAP	7	0	0
TAP	7	48	1
TAP	7	144	3
TAP	7	240	2
TAP	7	288	1
TAP	8	0	6
TAP	8	48	1
TAP	8	144	3
TAP	8	240	5
TAP	8	288	2
TAP	9	0	0
TAP	9	0	6
TAP	9	96	4
TAP	9	96	6
TAP	9	192	3
TAP	9	240	2
TAP	9	288	1
BRK	9	288	7
TAP	10	0	1
TAP	10	0	4
TAP	10	96	3
TAP	10	96	6
TAP	10	192	1
TAP	10	264	2
HLD	10	336	0	96
TAP	11	48	7
TAP	11	96	6
TAP	11	144	5
BRK	11	288	0
TAP	11	288	4
TAP	12	0	1
TAP	12	0	7
TAP	12	96	0
TAP	12	96	2
TAP	12	192	1
TAP	12	192	3
TAP	12	288	6
TAP	12	336	5
TAP	13	0	1
TAP	13	72	0
TAP	13	144	3
TAP	13	216	2
TAP	13	288	4
TAP	13	336	5
TAP	14	0	0
TAP	14	0	6
TAP	14	96	5
TAP	14	96	7
TAP	14	192	4
TAP	14	192	6
TAP	14	288	1
TAP	14	336	2
TAP	15	0	0
TAP	15	0	4
TAP	15	96	2
TAP	15	96	6
TAP	15	192	0
TAP	15	192	4
TAP	15	288	3
TAP	15	336	2
TAP	16	0	3
TAP	16	0	5
TAP	16	96	4
TAP	16	96	6
TAP	16	192	5
TAP	16	192	7
TAP	16	288	1
TAP	16	336	2
TAP	17	0	5
TAP	17	72	4
TAP	17	144	6
TAP	17	216	7
TAP	17	288	0
TAP	17	336	1
TAP	18	0	2
TAP	18	0	4
TAP	18	96	1
TAP	18	96	3
TAP	18	192	0
TAP	18	192	2
TAP	18	288	5
TAP	18	336	6
TAP	19	0	7
TAP	19	72	1
STR	19	144	0
SCL	19	144	0	96	96	5
TAP	20	48	0
TAP	20	96	1
TAP	20	192	7
HLD	20	240	6	96
HLD	20	336	5	96
HLD	21	48	4	96
HLD	21	144	3	96
HLD	21	240	2	96
TAP	22	48	6
TAP	22	96	7
TAP	22	192	1
TAP	22	240	0
HLD	22	336	3	96
TAP	23	48	2
TAP	23	96	1
TAP	23	192	4
TAP	23	288	1
TAP	23	288	5
TAP	24	48	7
TAP	24	96	6
TAP	24	192	4
TAP	24	288	2
HLD	24	336	1	96
HLD	25	48	0	96
HLD	25	144	7	96
HLD	25	240	6	96
HLD	25	336	5	96
TAP	26	48	4
STR	26	96	3
SCL	26	96	3	96	192	0
TAP	27	192	5
TAP	27	192	6
TAP	27	288	3
TAP	27	288	4
STR	28	0	0
SCR	28	0	0	96	96	3
STR	28	0	7
SCL	28	0	7	96	96	4
TAP	28	288	4
TAP	28	288	5
TAP	29	48	2
TAP	29	48	3
TAP	29	144	0
TAP	29	144	7
TAP	29	192	1
TAP	29	240	6
TAP	29	288	2
TAP	29	336	5
TAP	30	96	5
TAP	30	96	7
TAP	30	240	0
TAP	30	240	2
TAP	31	96	4
TAP	31	96	6
TAP	31	192	1
TAP	31	192	3
TAP	31	240	4
TAP	31	288	3
TAP	31	336	5
TAP	32	0	2
TAP	32	96	0
TAP	32	96	7
TAP	32	240	0
TAP	32	240	2
TAP	32	336	7
TAP	33	0	6
TAP	33	48	5
TAP	33	144	3
TAP	33	192	2
TAP	33	192	4
TAP	33	288	1
TAP	33	288	3
TAP	34	0	0
TAP	34	0	2
TAP	34	96	6
TAP	34	144	5
TAP	34	144	7
TAP	34	240	4
TAP	34	288	3
TAP	34	336	2
HLD	35	0	1	288
TAP	35	144	4
TAP	35	192	5
TAP	35	240	5
TAP	35	288	6
STR	36	0	5
SI_	36	0	5	96	96	1
TAP	36	240	7
TAP	36	264	6
BRK	36	288	7
TAP	37	0	1
TAP	37	0	7
TAP	37	48	0
TAP	37	96	1
TAP	37	96	7
TAP	37	144	0
TAP	37	192	2
TAP	37	264	5
TAP	37	336	4
TAP	37	336	7
TAP	38	48	0
TAP	38	48	6
TAP	38	96	7
TAP	38	144	0
TAP	38	144	6
TAP	38	240	3
TAP	38	288	2
TAP	38	336	1
TAP	39	0	0
TAP	39	0	2
TAP	39	96	1
TAP	39	96	7
TAP	39	144	5
TAP	39	144	7
TAP	39	240	0
TAP	39	240	6
TAP	39	336	3
TAP	40	0	4
TAP	40	48	2
TAP	40	96	5
TAP	40	144	1
HLD	40	192	2	96
BRK	40	288	0
TAP	41	0	0
TAP	41	0	6
TAP	41	48	7
TAP	41	96	0
TAP	41	96	6
TAP	41	144	7
TAP	41	192	5
TAP	41	264	2
TAP	41	336	0
TAP	41	336	3
TAP	42	48	1
TAP	42	48	7
TAP	42	96	0
TAP	42	144	1
TAP	42	144	7
TAP	42	240	4
TAP	42	288	5
TAP	42	336	6
TAP	43	0	5
TAP	43	0	7
TAP	43	96	0
TAP	43	96	6
TAP	43	144	0
TAP	43	144	2
TAP	43	240	1
TAP	43	240	7
TAP	43	336	4
TAP	44	0	2
TAP	44	48	5
TAP	44	96	2
TAP	44	96	6
HLD	44	144	1	96
HLD	44	144	7	96
TAP	44	288	0
BRK	44	288	7
STR	45	0	6
SCL	45	0	6	96	96	3
STR	45	192	2
SCL	45	192	2	96	96	7
STR	46	0	6
SI_	46	0	6	96	96	2
STR	46	192	1
SI_	46	192	1	96	96	5
STR	47	0	6
SCR	47	0	6	96	96	1
STR	47	192	2
SCR	47	192	2	96	96	5
STR	48	0	6
SI_	48	0	6	96	96	1
TAP	48	192	4
TAP	48	288	3
HLD	49	0	0	96
HLD	49	96	1	96
HLD	49	192	2	96
TAP	49	288	3
HLD	49	336	7	96
TAP	50	48	6
TAP	50	96	5
HLD	50	192	4	96
TAP	50	288	3
STR	51	0	2
SI_	51	0	2	96	192	6
TAP	51	96	1
TAP	51	192	0
TAP	51	288	7
TAP	52	0	0
TAP	52	0	4
TAP	52	48	1
TAP	52	96	5
TAP	52	144	2
TAP	52	192	6
TAP	52	240	3
TAP	52	288	7
BRK	52	336	4
TAP	53	0	0
TAP	53	0	6
TAP	53	96	5
TAP	53	96	7
TAP	53	192	4
TAP	53	192	6
TAP	53	288	1
TAP	53	336	2
TAP	54	0	6
TAP	54	72	7
TAP	54	144	4
TAP	54	216	5
TAP	54	288	3
TAP	54	336	2
TAP	55	0	1
TAP	55	0	7
TAP	55	96	0
TAP	55	96	2
TAP	55	192	1
TAP	55	192	3
TAP	55	288	6
TAP	55	336	5
TAP	56	0	3
TAP	56	0	7
TAP	56	96	1
TAP	56	96	5
TAP	56	192	3
TAP	56	192	7
TAP	56	288	4
TAP	56	336	5
TAP	57	0	2
TAP	57	0	4
TAP	57	96	1
TAP	57	96	3
TAP	57	192	0
TAP	57	192	2
TAP	57	288	6
TAP	57	336	5
TAP	58	0	2
TAP	58	72	3
TAP	58	144	1
TAP	58	216	0
TAP	58	288	7
TAP	58	336	6
TAP	59	0	3
TAP	59	0	5
TAP	59	96	4
TAP	59	96	6
TAP	59	192	5
TAP	59	192	7
TAP	59	288	2
TAP	59	336	1
TAP	60	0	0
TAP	60	72	6
TAP	60	144	2
TAP	60	144	5
TAP	60	240	1
TAP	60	288	6
TAP	61	0	7
TAP	61	48	6
TAP	61	96	5
TAP	61	144	4
TAP	61	192	3
TAP	61	240	2
TAP	61	288	1
TAP	61	312	0
BRK	61	336	1

T_REC_TAP	323
T_REC_BRK	7
T_REC_XTP	0
T_REC_HLD	21
T_REC_XHO	0
T_REC_STR	15
T_REC_BST	0
T_REC_XST	0
T_REC_TTP	0
T_REC_THO	0
T_REC_SLD	15
T_REC_ALL	381
T_NUM_TAP	338
T_NUM_BRK	7
T_NUM_HLD	21
T_NUM_SLD	15
T_NUM_ALL	381
T_JUDGE_TAP	345
T_JUDGE_HLD	46
T_JUDGE_SLD	15
T_JUDGE_ALL	406
TTM_EACHPAIRS	78
TTM_SCR_TAP	169000
TTM_SCR_BRK	18200
TTM_SCR_HLD	21000
TTM_SCR_SLD	22500
TTM_SCR_ALL	230700
TTM_SCR_S	223100
TTM_SCR_SS	230000
TTM_RAT_ACV	10030

