VERSION	0.00.00	1.03.00
FES_MODE	0
BPM_DEF	162.000	162.000	162.000	162.000
MET_DEF	4	4
RESOLUTION	384
CLK_DEF	384
COMPATIBLE_CODE	MA2

BPM	0	0	162.000
MET	0	0	4	4

HLD	2	0	3	192
HLD	2	0	4	192
STR	2	288	7
SI_	2	288	7	96	96	4
STR	3	288	1
SI_	3	288	1	96	96	6
HLD	5	0	3	192
HLD	5	0	4	192
TAP	6	0	1
TAP	6	96	5
TAP	6	192	2
TAP	6	288	3
TAP	6	288	4
HLD	7	0	1	96
STR	7	192	0
SCR	7	192	0	96	96	3
TAP	8	96	1
TAP	8	96	4
TAP	8	288	3
TAP	8	288	6
TAP	9	96	0
TAP	9	96	6
TAP	9	288	1
TAP	9	288	7
TAP	10	0	2
TAP	10	0	5
TAP	10	96	3
TAP	10	96	4
TAP	10	192	0
TAP	10	192	7
TAP	10	336	1
TAP	10	336	6
TAP	11	48	7
TAP	11	96	0
HLD	11	144	1	144
HLD	11	144	6	144
TAP	12	0	0
TAP	12	0	7
TAP	12	96	6
TAP	12	96	7
TAP	12	192	0
TAP	12	288	0
TAP	12	288	1
TAP	13	0	7
TAP	13	96	6
TAP	13	192	7
TAP	13	288	2
TAP	13	288	3
TAP	14	0	4
TAP	14	96	5
TAP	14	192	6
BRK	14	288	2
BRK	14	288	5
HLD	15	0	7	96
HLD	15	96	1	96
HLD	15	192	5	96
HLD	15	288	3	96
TAP	16	0	4
TAP	16	96	2
TAP	16	96	4
TAP	16	192	3
TAP	16	288	3
TAP	16	288	5
TAP	17	0	4
HLD	17	0	5	96
TAP	17	96	6
HLD	17	192	2	96
TAP	17	192	3
TAP	17	288	1
TAP	18	0	0
TAP	18	0	7
TAP	18	96	1
TAP	18	96	6
TAP	18	192	0
TAP	18	192	6
TAP	18	288	1
TAP	18	288	7
TAP	19	0	4
TAP	19	72	3
HLD	19	144	2	96
HLD	19	144	7	96
TAP	20	0	0
TAP	20	96	2
TAP	20	96	6
TAP	20	192	7
TAP	20	288	1
TAP	20	288	5
TAP	21	0	0
TAP	21	96	2
STR	21	96	4
SI_	21	96	4	96	96	0
TAP	22	0	1
TAP	22	96	2
TAP	22	96	7
TAP	22	192	6
TAP	22	288	0
TAP	22	288	5
TAP	23	0	1
STR	23	96	0
SI_	23	96	0	96	96	3
TAP	23	96	2
TAP	24	0	0
TAP	24	96	2
TAP	24	96	6
TAP	24	192	7
TAP	24	288	1
TAP	24	288	5
TAP	25	0	0
TAP	25	96	2
TAP	25	96	6
TAP	25	192	3
TAP	25	288	4
TAP	26	0	2
TAP	26	0	3
TAP	26	96	4
TAP	26	96	5
TAP	26	192	1
TAP	26	288	6
STR	27	0	1
SCR	27	0	1	96	96	4
TAP	27	192	5
TAP	27	288	6
HLD	28	0	0	96
TAP	28	96	6
HLD	28	192	7	96
TAP	28	288	1
HLD	29	0	0	96
TAP	29	192	6
TAP	29	192	7
TAP	29	288	0
TAP	29	288	1
HLD	30	0	1	96
HLD	30	96	2	96
HLD	30	192	3	96
TAP	30	288	4
TAP	31	0	2
TAP	31	0	5
TAP	31	96	2
TAP	31	96	5
TAP	31	192	6
TAP	31	288	1
STR	32	0	2
SCL	32	0	2	96	192	7
STR	32	0	6
SCL	32	0	6	96	192	3
TAP	33	192	3
HLD	33	192	4	96
TAP	33	288	3
TAP	34	0	2
TAP	34	0	5
TAP	34	144	1
TAP	34	144	6
STR	34	288	0
SI_	34	288	0	96	192	3
STR	34	288	7
SI_	34	288	7	96	192	4
STR	35	288	3
SCL	35	288	3	96	192	0
STR	35	288	4
SCR	35	288	4	96	192	7
HLD	37	0	3	96
TAP	37	96	4
TAP	37	192	1
TAP	37	192	6
TAP	37	336	2
TAP	37	336	5
TAP	38	48	5
TAP	38	96	6
STR	38	144	7
SCR	38	144	7	96	96	2
TAP	39	0	6
TAP	39	0	7
TAP	39	96	5
TAP	39	192	0
TAP	39	192	1
TAP	39	288	2
TAP	40	0	3
TAP	40	96	4
BRK	40	192	0
BRK	40	192	5
BRK	40	288	2
BRK	40	288	7
HLD	41	0	5	96
TAP	41	96	3
TAP	41	192	1
TAP	41	192	6
TAP	41	336	2
TAP	41	336	5
TAP	42	48	5
TAP	42	96	6
STR	42	144	7
SCR	42	144	7	96	96	2
TAP	43	0	6
TAP	43	0	7
TAP	43	96	5
TAP	43	192	0
TAP	43	192	1
TAP	43	288	2
TAP	44	0	5
TAP	44	96	0
TAP	44	192	2
TAP	44	288	7
TAP	45	0	6
TAP	45	96	2
TAP	45	192	3
TAP	45	192	6
HLD	45	288	1	96
TAP	45	288	4
TAP	46	0	0
TAP	46	96	0
STR	46	192	5
SCL	46	192	5	96	96	2
TAP	47	0	7
TAP	47	96	0
TAP	47	96	1
TAP	47	192	7
TAP	47	240	0
STR	47	240	7
SCL	47	240	7	96	96	4
TAP	49	0	6
TAP	49	0	7
TAP	49	96	1
TAP	49	96	5
TAP	49	192	6
TAP	49	192	7
TAP	49	288	0
TAP	49	288	4
TAP	50	0	0
TAP	50	0	1
TAP	50	96	2
TAP	50	96	6
HLD	50	192	1	192
STR	50	288	0
SCL	50	288	0	96	192	5
STR	51	288	7
SI_	51	288	7	96	192	4
TAP	53	0	0
TAP	53	0	7
TAP	53	96	6
TAP	53	96	7
TAP	53	192	0
TAP	53	288	0
TAP	53	288	1
TAP	54	0	7
TAP	54	96	6
TAP	54	192	7
TAP	54	288	2
TAP	54	288	3
TAP	55	0	4
TAP	55	96	5
TAP	55	192	6
BRK	55	288	2
BRK	55	288	5
HLD	56	0	7	96
HLD	56	96	1	96
HLD	56	192	5	96
HLD	56	288	3	96
TAP	57	0	4
TAP	57	96	2
TAP	57	96	4
TAP	57	192	3
TAP	57	288	3
TAP	57	288	5
TAP	58	0	4
HLD	58	0	5	96
TAP	58	96	6
HLD	58	192	2	96
TAP	58	192	3
TAP	58	288	1
TAP	59	0	0
TAP	59	0	7
TAP	59	96	1
TAP	59	96	6
TAP	59	192	0
TAP	59	192	6
TAP	59	288	1
TAP	59	288	7
TAP	60	0	4
TAP	60	72	3
HLD	60	144	2	96
HLD	60	144	7	96
TAP	61	48	0
TAP	61	96	6
TAP	61	144	2
TAP	61	192	4
TAP	61	240	3
TAP	61	288	5
BRK	61	336	2

T_REC_TAP	209
T_REC_BRK	9
T_REC_XTP	0
T_REC_HLD	34
T_REC_XHO	0
T_REC_STR	18
T_REC_BST	0
T_REC_XST	0
T_REC_TTP	0
T_REC_THO	0
T_REC_SLD	18
T_REC_ALL	288
T_NUM_TAP	227
T_NUM_BRK	9
T_NUM_HLD	34
T_NUM_SLD	18
T_NUM_ALL	288
T_JUDGE_TAP	236
T_JUDGE_HLD	80
T_JUDGE_SLD	18
T_JUDGE_ALL	334
TTM_EACHPAIRS	81
TTM_SCR_TAP	113500
TTM_SCR_BRK	23400
TTM_SCR_HLD	34000
TTM_SCR_SLD	27000
TTM_SCR_ALL	197900
TTM_SCR_S	191100
TTM_SCR_SS	197000
TTM_RAT_ACV	10045

