VERSION	0.00.00	1.03.00
FES_MODE	0
BPM_DEF	162.000	162.000	162.000	162.000
MET_DEF	4	4
RESOLUTION	384
CLK_DEF	384
COMPATIBLE_CODE	MA2

BPM	0	0	162.000
MET	0	0	4	4

TAP	2	0	6
HLD	2	96	0	192
TAP	3	0	1
HLD	3	96	7	192
TAP	4	0	5
TAP	4	96	6
TAP	4	192	7
TAP	4	288	0
TAP	5	0	2
TAP	5	96	1
TAP	5	192	0
TAP	5	288	7
TAP	6	0	6
HLD	6	96	0	192
TAP	7	0	1
HLD	7	96	7	192
TAP	8	0	5
TAP	8	96	6
TAP	8	192	7
TAP	8	288	0
TAP	9	0	2
TAP	9	96	1
TAP	9	192	0
TAP	9	288	7
HLD	10	0	3	192
HLD	10	96	4	96
TAP	10	288	1
TAP	10	288	6
STR	11	0	0
SCR	11	0	0	96	192	3
STR	11	0	7
SCL	11	0	7	96	192	4
TAP	12	0	1
TAP	12	96	0
TAP	12	96	7
TAP	12	192	7
TAP	12	288	1
TAP	12	288	6
TAP	13	0	0
TAP	13	96	1
TAP	13	96	6
TAP	13	192	7
TAP	13	288	1
TAP	13	288	6
TAP	14	0	2
TAP	14	96	3
TAP	14	192	4
TAP	14	288	5
TAP	15	0	7
TAP	15	96	1
TAP	15	192	5
TAP	15	288	3
TAP	16	0	1
TAP	16	96	2
TAP	16	96	5
TAP	16	192	6
TAP	16	288	2
TAP	16	288	5
TAP	17	0	3
TAP	17	96	2
TAP	17	96	5
TAP	17	192	4
TAP	17	288	2
TAP	17	288	5
TAP	18	0	1
TAP	18	96	0
TAP	18	192	7
TAP	18	288	6
TAP	19	0	6
TAP	19	96	1
TAP	19	192	7
TAP	19	288	0
TAP	20	0	2
TAP	20	96	2
TAP	20	96	3
TAP	20	192	5
TAP	20	288	4
TAP	20	288	5
TAP	21	0	6
TAP	21	96	7
HLD	21	192	6	96
TAP	22	0	5
TAP	22	96	4
TAP	22	96	5
TAP	22	192	2
TAP	22	288	2
TAP	22	288	3
TAP	23	0	1
TAP	23	96	0
HLD	23	192	1	96
TAP	24	0	2
TAP	24	96	2
TAP	24	96	3
TAP	24	192	5
TAP	24	288	4
TAP	24	288	5
TAP	25	0	1
TAP	25	96	1
TAP	25	96	2
TAP	25	192	6
TAP	25	288	5
TAP	25	288	6
TAP	26	0	2
TAP	26	0	4
TAP	26	96	3
TAP	26	96	5
TAP	26	192	6
TAP	26	288	1
TAP	27	0	0
TAP	27	96	0
TAP	27	192	1
TAP	27	192	7
TAP	27	288	0
TAP	27	288	6
STR	28	0	6
SI_	28	0	6	96	192	2
TAP	29	0	6
TAP	29	96	1
TAP	29	192	2
TAP	29	192	5
TAP	29	288	2
TAP	29	288	5
STR	30	0	0
SI_	30	0	0	96	192	3
STR	30	0	7
SI_	30	0	7	96	192	4
TAP	31	0	7
TAP	31	96	0
TAP	31	192	2
TAP	31	192	6
TAP	31	288	2
TAP	31	288	6
HLD	32	0	5	288
TAP	32	96	7
TAP	32	192	6
TAP	32	288	7
HLD	33	0	2	288
TAP	33	96	0
TAP	33	192	1
TAP	33	288	0
TAP	34	0	7
TAP	34	96	0
TAP	34	192	7
TAP	34	288	0
HLD	35	0	1	288
HLD	35	0	5	288
STR	36	0	5
SI_	36	0	5	96	96	1
TAP	37	0	5
TAP	37	96	2
TAP	37	192	3
TAP	37	192	4
TAP	38	0	6
STR	38	96	7
SCR	38	96	7	96	96	2
TAP	39	0	5
TAP	39	0	7
TAP	39	96	2
TAP	39	192	0
TAP	39	192	2
TAP	39	288	5
TAP	40	0	2
TAP	40	96	5
BRK	40	192	0
BRK	40	288	7
TAP	41	0	5
TAP	41	96	2
TAP	41	192	3
TAP	41	192	4
TAP	42	0	6
STR	42	96	7
SCR	42	96	7	96	96	2
TAP	43	0	5
TAP	43	0	7
TAP	43	96	2
TAP	43	192	0
TAP	43	192	2
TAP	43	288	5
TAP	44	0	3
TAP	44	0	5
TAP	44	96	2
TAP	44	96	4
TAP	44	192	5
TAP	44	288	2
STR	45	0	7
SI_	45	0	7	96	96	3
TAP	46	0	1
TAP	46	0	5
TAP	46	96	2
TAP	46	96	6
TAP	46	192	5
TAP	46	288	6
STR	47	0	7
SCR	47	0	7	96	96	2
TAP	48	0	2
TAP	48	0	3
TAP	48	96	4
TAP	48	96	5
TAP	48	192	5
TAP	48	288	6
TAP	49	0	0
TAP	49	96	1
TAP	49	96	7
TAP	49	192	0
TAP	49	288	2
TAP	49	288	6
TAP	50	0	7
TAP	50	96	0
TAP	50	96	6
TAP	50	192	7
TAP	50	288	1
TAP	50	288	5
STR	51	0	6
SCR	51	0	6	96	192	1
STR	52	0	0
SI_	52	0	0	96	192	3
BRK	53	0	1
TAP	53	96	0
TAP	53	96	7
TAP	53	192	7
TAP	53	288	1
TAP	53	288	6
TAP	54	0	0
TAP	54	96	1
TAP	54	96	6
TAP	54	192	7
TAP	54	288	1
TAP	54	288	6
TAP	55	0	2
TAP	55	96	3
TAP	55	192	4
TAP	55	288	5
TAP	56	0	7
TAP	56	96	1
TAP	56	192	5
TAP	56	288	3
TAP	57	0	1
TAP	57	96	2
TAP	57	96	5
TAP	57	192	6
TAP	57	288	2
TAP	57	288	5
TAP	58	0	3
TAP	58	96	2
TAP	58	96	5
TAP	58	192	4
TAP	58	288	2
TAP	58	288	5
TAP	59	0	1
TAP	59	96	0
TAP	59	192	7
TAP	59	288	6
TAP	60	0	6
TAP	60	96	1
TAP	60	192	7
BRK	60	288	0
TAP	61	0	0
TAP	61	0	7

T_REC_TAP	218
T_REC_BRK	4
T_REC_XTP	0
T_REC_HLD	12
T_REC_XHO	0
T_REC_STR	12
T_REC_BST	0
T_REC_XST	0
T_REC_TTP	0
T_REC_THO	0
T_REC_SLD	12
T_REC_ALL	258
T_NUM_TAP	230
T_NUM_BRK	4
T_NUM_HLD	12
T_NUM_SLD	12
T_NUM_ALL	258
T_JUDGE_TAP	234
T_JUDGE_HLD	50
T_JUDGE_SLD	12
T_JUDGE_ALL	296
TTM_EACHPAIRS	53
TTM_SCR_TAP	115000
TTM_SCR_BRK	10400
TTM_SCR_HLD	12000
TTM_SCR_SLD	18000
TTM_SCR_ALL	155400
TTM_SCR_S	150350
TTM_SCR_SS	155000
TTM_RAT_ACV	10025

