VERSION	0.00.00	1.03.00
FES_MODE	0
BPM_DEF	162.000	162.000	162.000	162.000
MET_DEF	4	4
RESOLUTION	384
CLK_DEF	384
COMPATIBLE_CODE	MA2

BPM	0	0	162.000
MET	0	0	4	4

TAP	2	0	2
TAP	2	0	5
HLD	3	0	4	192
HLD	4	0	6	192
TAP	5	0	2
TAP	5	0	5
TAP	6	96	5
TAP	6	192	3
TAP	6	288	4
HLD	7	96	2	96
HLD	7	96	5	96
TAP	7	288	5
TAP	8	96	2
TAP	8	288	5
TAP	9	96	2
TAP	9	288	5
TAP	10	0	4
TAP	10	96	3
HLD	10	192	2	384
HLD	10	192	5	384
TAP	12	96	0
TAP	12	96	7
TAP	12	288	0
TAP	13	96	7
TAP	13	288	5
TAP	14	96	4
TAP	14	288	3
TAP	15	0	7
TAP	15	96	0
TAP	15	192	4
TAP	15	288	3
TAP	16	96	5
TAP	16	288	2
TAP	17	96	7
TAP	17	288	0
TAP	18	96	1
TAP	18	96	6
TAP	18	288	5
TAP	19	0	4
TAP	19	96	3
TAP	19	192	2
TAP	19	192	6
TAP	20	96	5
TAP	20	288	2
TAP	21	96	5
TAP	21	288	1
TAP	21	288	6
TAP	22	96	5
TAP	22	288	2
HLD	23	96	5	96
TAP	23	288	2
TAP	23	288	5
TAP	24	96	2
TAP	24	288	5
TAP	25	96	2
TAP	25	288	2
TAP	25	288	5
TAP	26	0	3
TAP	26	96	4
TAP	26	192	2
TAP	26	288	5
STR	27	0	4
SI_	27	0	4	96	96	7
TAP	28	0	0
TAP	28	96	1
TAP	28	192	5
TAP	28	288	4
HLD	29	0	5	96
TAP	29	192	5
TAP	29	192	6
TAP	29	288	0
STR	30	0	0
SI_	30	0	0	96	96	3
TAP	30	288	2
TAP	30	288	5
TAP	31	0	2
TAP	31	0	5
TAP	31	96	4
TAP	31	192	5
TAP	31	192	6
TAP	31	288	5
TAP	31	288	6
TAP	32	0	3
TAP	32	0	7
TAP	32	288	0
TAP	32	288	4
HLD	33	0	3	288
HLD	33	0	4	288
TAP	34	96	2
TAP	34	96	5
TAP	34	192	1
TAP	34	192	6
TAP	34	288	0
TAP	34	288	7
HLD	35	0	1	288
HLD	35	0	6	288
BRK	36	0	1
TAP	37	0	3
TAP	37	96	4
TAP	37	192	2
TAP	37	192	5
TAP	38	0	0
TAP	38	96	1
TAP	39	0	6
TAP	39	0	7
TAP	39	192	0
TAP	39	192	1
TAP	40	0	4
TAP	40	96	3
TAP	40	192	0
TAP	40	288	7
TAP	41	0	3
TAP	41	96	4
TAP	41	192	2
TAP	41	192	5
TAP	42	0	0
TAP	42	96	1
TAP	43	0	6
TAP	43	0	7
TAP	43	192	0
TAP	43	192	1
TAP	44	0	2
TAP	44	96	3
TAP	44	192	4
TAP	45	0	0
TAP	45	192	1
TAP	45	288	1
TAP	46	192	0
TAP	46	288	7
TAP	47	192	7
TAP	47	288	7
TAP	48	192	5
TAP	48	288	2
TAP	49	96	6
TAP	49	288	1
TAP	49	288	5
TAP	50	96	1
TAP	50	288	2
TAP	50	288	6
STR	51	0	2
SI_	51	0	2	96	192	5
BRK	52	0	7
TAP	53	96	0
TAP	53	96	7
TAP	53	288	0
TAP	54	96	7
TAP	54	288	5
TAP	55	96	4
TAP	55	288	3
TAP	56	0	7
TAP	56	96	0
TAP	56	192	4
TAP	56	288	3
TAP	57	96	5
TAP	57	288	2
TAP	58	96	7
TAP	58	288	0
TAP	59	96	1
TAP	59	96	6
TAP	59	288	5
TAP	60	0	4
TAP	60	96	3
TAP	60	192	2
TAP	60	192	6
BRK	61	336	6

T_REC_TAP	144
T_REC_BRK	3
T_REC_XTP	0
T_REC_HLD	12
T_REC_XHO	0
T_REC_STR	3
T_REC_BST	0
T_REC_XST	0
T_REC_TTP	0
T_REC_THO	0
T_REC_SLD	3
T_REC_ALL	165
T_NUM_TAP	147
T_NUM_BRK	3
T_NUM_HLD	12
T_NUM_SLD	3
T_NUM_ALL	165
T_JUDGE_TAP	150
T_JUDGE_HLD	56
T_JUDGE_SLD	3
T_JUDGE_ALL	209
TTM_EACHPAIRS	33
TTM_SCR_TAP	73500
TTM_SCR_BRK	7800
TTM_SCR_HLD	12000
TTM_SCR_SLD	4500
TTM_SCR_ALL	97800
TTM_SCR_S	94600
TTM_SCR_SS	97500
TTM_RAT_ACV	10030

