VERSION	0.00.00	1.03.00
FES_MODE	0
BPM_DEF	205.000	205.000	205.000	205.000
MET_DEF	4	4
RESOLUTION	384
CLK_DEF	384
COMPATIBLE_CODE	MA2

BPM	0	0	205.000
MET	0	0	4	4

TAP	4	0	0
TAP	4	96	0
TAP	4	192	4
TAP	4	192	5
TAP	4	288	2
TAP	4	288	3
TAP	5	0	7
TAP	5	96	6
TAP	5	192	0
TAP	5	288	1
TAP	6	0	6
TAP	6	96	7
TAP	6	144	0
TAP	6	192	1
TAP	7	0	3
TAP	7	96	2
TAP	7	192	4
TAP	7	288	5
TAP	8	0	2
TAP	8	96	3
TAP	8	144	4
TAP	8	192	5
TAP	9	0	1
TAP	9	96	0
TAP	9	192	6
TAP	9	288	7
TAP	10	0	0
TAP	10	48	1
TAP	10	96	0
TAP	10	144	7
TAP	10	192	6
TAP	11	0	5
TAP	11	96	4
TAP	11	192	2
TAP	11	288	3
TAP	12	0	4
TAP	12	48	5
TAP	12	96	4
TAP	12	144	3
TAP	12	192	2
TAP	13	0	1
TAP	13	96	1
TAP	13	96	7
TAP	13	192	6
TAP	13	288	0
TAP	13	288	6
TAP	14	0	1
TAP	14	96	0
TAP	14	96	6
TAP	14	192	1
TAP	14	192	7
TAP	15	0	2
TAP	15	96	2
TAP	15	96	4
TAP	15	192	5
TAP	15	288	3
TAP	15	288	5
TAP	16	0	2
TAP	16	96	4
TAP	16	96	5
TAP	16	192	2
TAP	16	192	3
TAP	17	0	7
TAP	17	96	1
TAP	17	96	7
TAP	17	192	0
TAP	17	288	0
TAP	17	288	6
TAP	18	0	1
TAP	18	96	0
TAP	18	96	6
TAP	18	192	1
TAP	18	192	7
TAP	19	0	2
TAP	19	0	3
TAP	19	96	3
TAP	19	96	4
TAP	19	192	4
TAP	19	192	5
TAP	19	288	3
TAP	19	288	4
TAP	20	0	0
TAP	20	0	2
TAP	20	96	1
TAP	20	96	7
HLD	20	192	0	192
TAP	20	192	6
TAP	20	336	7
TAP	21	0	7
TAP	21	96	6
TAP	21	192	0
TAP	21	288	1
TAP	22	0	0
TAP	22	48	7
TAP	22	96	6
TAP	22	144	7
TAP	22	192	0
TAP	23	0	3
TAP	23	96	2
TAP	23	192	4
TAP	23	288	5
TAP	24	0	4
TAP	24	48	3
TAP	24	96	2
TAP	24	144	3
TAP	24	192	4
TAP	25	0	6
TAP	25	0	7
TAP	25	96	6
TAP	25	96	7
TAP	25	192	5
TAP	25	192	6
TAP	25	288	5
TAP	25	288	6
TAP	26	0	0
TAP	26	0	2
TAP	26	96	1
TAP	26	96	3
TAP	26	192	0
TAP	26	192	2
TAP	27	0	0
TAP	27	0	1
TAP	27	96	0
TAP	27	96	1
TAP	27	192	1
TAP	27	192	2
TAP	27	288	1
TAP	27	288	2
TAP	28	0	4
TAP	28	0	6
TAP	28	96	5
TAP	28	96	7
TAP	28	192	4
TAP	28	192	6
TAP	29	0	1
TAP	29	0	6
TAP	29	96	0
TAP	29	96	6
TAP	29	192	1
TAP	29	192	6
TAP	29	288	1
TAP	29	288	7
TAP	30	0	2
TAP	30	0	6
TAP	30	96	1
TAP	30	96	5
TAP	30	192	2
TAP	30	192	6
TAP	31	0	0
TAP	31	0	7
TAP	31	96	1
TAP	31	96	7
TAP	31	192	0
TAP	31	192	7
TAP	31	288	0
TAP	31	288	6
TAP	32	0	5
TAP	32	0	6
TAP	32	96	4
TAP	32	96	5
TAP	32	192	3
TAP	32	192	4
TAP	33	0	1
TAP	33	96	3
TAP	33	144	3
TAP	33	192	4
TAP	33	288	4
TAP	34	0	6
TAP	34	96	4
TAP	34	144	4
TAP	34	192	3
TAP	34	288	3
TAP	35	0	2
TAP	35	96	3
TAP	35	96	4
TAP	35	192	5
TAP	35	288	3
TAP	35	288	4
TAP	36	0	0
TAP	36	0	6
TAP	36	96	1
TAP	36	96	7
TAP	36	192	0
TAP	36	192	6
TAP	37	0	6
TAP	37	96	4
TAP	37	144	4
TAP	37	192	2
TAP	37	288	3
TAP	38	0	1
TAP	38	96	3
TAP	38	144	3
TAP	38	192	5
TAP	38	288	4
TAP	39	0	5
TAP	39	0	6
TAP	39	96	0
TAP	39	96	7
TAP	39	192	1
TAP	39	192	2
TAP	39	288	3
TAP	39	288	4
TAP	40	0	5
TAP	40	0	6
TAP	40	96	1
TAP	40	96	2
BRK	40	192	5
BRK	40	192	6
TAP	41	0	1
TAP	41	96	5
TAP	41	144	6
TAP	41	192	5
TAP	41	288	2
TAP	41	336	1
TAP	42	0	2
TAP	42	96	6
TAP	42	144	2
TAP	42	192	6
TAP	43	0	7
TAP	43	48	6
TAP	43	96	7
TAP	43	144	6
TAP	43	192	0
TAP	43	240	7
TAP	43	288	0
TAP	43	336	7
TAP	44	0	1
TAP	44	48	0
TAP	44	96	1
TAP	44	144	0
TAP	44	192	1
TAP	44	288	1
TAP	45	0	6
TAP	45	96	2
TAP	45	144	1
TAP	45	192	2
TAP	45	288	5
TAP	45	336	6
TAP	46	0	5
TAP	46	96	1
TAP	46	144	5
TAP	46	192	1
TAP	47	0	0
TAP	47	48	1
TAP	47	96	0
TAP	47	144	1
TAP	47	192	7
TAP	47	240	0
TAP	47	288	7
TAP	47	336	0
TAP	48	0	6
TAP	48	48	7
TAP	48	96	6
TAP	48	144	7
TAP	48	192	6
TAP	49	0	0
TAP	49	96	7
TAP	49	144	6
TAP	49	192	7
TAP	49	288	3
TAP	49	336	2
TAP	50	0	3
TAP	50	96	7
TAP	50	144	3
TAP	50	192	7
TAP	51	0	3
TAP	51	48	3
TAP	51	96	4
TAP	51	144	4
TAP	51	192	2
TAP	51	240	2
TAP	51	288	5
TAP	51	336	5
TAP	52	0	1
TAP	52	48	1
TAP	52	96	6
TAP	52	144	1
TAP	52	192	6
TAP	52	288	6
TAP	53	0	7
TAP	53	96	0
TAP	53	144	1
TAP	53	192	0
TAP	53	288	4
TAP	53	336	5
TAP	54	0	4
TAP	54	96	0
TAP	54	144	4
TAP	54	192	0
TAP	55	0	7
TAP	55	48	7
TAP	55	96	0
TAP	55	144	0
TAP	55	192	6
TAP	55	240	6
TAP	55	288	1
TAP	55	336	1
TAP	56	0	5
TAP	56	48	5
TAP	56	96	2
TAP	56	144	5
TAP	56	192	2
TAP	57	0	7
TAP	57	96	0
TAP	57	144	7
TAP	57	192	6
TAP	57	288	5
TAP	58	0	5
TAP	58	48	6
TAP	58	96	7
TAP	58	144	0
HLD	58	192	1	96
TAP	59	0	3
TAP	59	96	4
TAP	59	144	3
TAP	59	192	2
TAP	59	288	1
TAP	60	0	1
TAP	60	48	2
TAP	60	96	3
TAP	60	144	4
HLD	60	192	5	96
TAP	61	0	0
TAP	61	96	7
TAP	61	144	0
TAP	61	192	1
TAP	61	288	2
TAP	62	0	2
TAP	62	48	1
TAP	62	96	0
TAP	62	144	7
HLD	62	192	6	96
TAP	63	0	4
TAP	63	96	3
TAP	63	144	4
TAP	63	192	5
TAP	63	288	6
TAP	64	0	6
TAP	64	48	5
TAP	64	96	4
TAP	64	144	3
HLD	64	192	2	96
TAP	65	0	3
TAP	65	96	2
TAP	65	192	4
TAP	65	288	5
TAP	65	336	4
TAP	66	0	3
TAP	66	48	3
TAP	66	96	2
TAP	66	144	3
TAP	66	192	4
TAP	66	336	4
TAP	67	48	4
TAP	67	96	5
TAP	67	192	3
TAP	67	288	2
TAP	67	336	3
TAP	68	0	4
TAP	68	48	4
TAP	68	96	5
TAP	68	144	4
TAP	68	192	3
TAP	69	0	1
TAP	69	96	5
TAP	69	192	6
TAP	69	288	2
TAP	70	0	0
TAP	70	0	5
TAP	70	96	2
TAP	70	96	6
TAP	70	192	1
TAP	70	192	4
TAP	70	336	7
TAP	71	48	7
TAP	71	96	3
TAP	71	192	0
TAP	71	288	4
TAP	72	0	3
TAP	72	0	6
TAP	72	96	1
TAP	72	96	5
TAP	72	192	2
TAP	72	192	7
STR	73	0	0
SI_	73	0	0	96	96	3
STR	73	192	4
SI_	73	192	4	96	96	7
STR	74	0	2
SI_	74	0	2	96	96	5
STR	74	192	6
SI_	74	192	6	96	96	1
STR	75	0	4
SI_	75	0	4	96	96	7
STR	75	192	0
SI_	75	192	0	96	96	3
STR	76	0	6
SI_	76	0	6	96	96	1
STR	76	192	2
SI_	76	192	2	96	96	5
STR	77	0	1
SI_	77	0	1	96	96	4
STR	77	192	5
SI_	77	192	5	96	96	0
STR	78	0	3
SI_	78	0	3	96	96	6
STR	78	192	7
SI_	78	192	7	96	96	2
STR	79	0	5
SI_	79	0	5	96	96	0
STR	79	192	1
SI_	79	192	1	96	96	4
STR	80	0	7
SI_	80	0	7	96	96	2
STR	80	192	3
SI_	80	192	3	96	96	6
HLD	81	0	0	192
TAP	81	288	4
TAP	82	0	2
TAP	82	96	2
TAP	82	96	3
TAP	82	192	5
TAP	82	288	4
TAP	82	288	5
TAP	83	0	3
TAP	83	96	0
TAP	83	96	6
TAP	83	192	1
TAP	83	192	5
TAP	83	288	2
TAP	83	288	4
STR	84	0	3
SI_	84	0	3	96	96	7
HLD	85	0	7	192
TAP	85	288	3
TAP	86	0	5
TAP	86	96	4
TAP	86	96	5
TAP	86	192	2
TAP	86	288	2
TAP	86	288	3
TAP	87	0	4
TAP	87	96	1
TAP	87	96	7
TAP	87	192	2
TAP	87	192	6
TAP	87	288	3
TAP	87	288	5
BRK	88	0	0
BRK	88	0	4
BRK	88	96	2
BRK	88	96	6
BRK	88	192	0
BRK	88	192	4

T_REC_TAP	405
T_REC_BRK	8
T_REC_XTP	0
T_REC_HLD	7
T_REC_XHO	0
T_REC_STR	17
T_REC_BST	0
T_REC_XST	0
T_REC_TTP	0
T_REC_THO	0
T_REC_SLD	17
T_REC_ALL	454
T_NUM_TAP	422
T_NUM_BRK	8
T_NUM_HLD	7
T_NUM_SLD	17
T_NUM_ALL	454
T_JUDGE_TAP	430
T_JUDGE_HLD	20
T_JUDGE_SLD	17
T_JUDGE_ALL	467
TTM_EACHPAIRS	80
TTM_SCR_TAP	211000
TTM_SCR_BRK	20800
TTM_SCR_HLD	7000
TTM_SCR_SLD	25500
TTM_SCR_ALL	264300
TTM_SCR_S	255600
TTM_SCR_SS	263500
TTM_RAT_ACV	10030

