VERSION	0.00.00	1.03.00
FES_MODE	0
BPM_DEF	205.000	205.000	205.000	205.000
MET_DEF	4	4
RESOLUTION	384
CLK_DEF	384
COMPATIBLE_CODE	MA2

BPM	0	0	205.000
MET	0	0	4	4

TAP	5	0	3
TAP	5	96	2
TAP	5	192	1
TAP	5	288	0
TAP	6	0	7
TAP	6	96	6
TAP	6	192	5
TAP	6	288	4
TAP	7	0	3
TAP	7	96	4
TAP	7	192	5
TAP	7	288	6
TAP	8	0	7
TAP	8	96	0
TAP	8	192	1
TAP	8	288	2
HLD	9	0	4	96
HLD	9	192	3	96
HLD	10	0	4	96
HLD	10	192	3	96
HLD	11	0	7	96
HLD	11	192	0	96
HLD	12	0	7	96
HLD	12	192	0	96
TAP	13	0	2
TAP	13	96	3
TAP	13	192	4
TAP	13	288	5
HLD	14	1	1	95
TAP	14	96	0
HLD	14	192	5	96
TAP	14	288	6
TAP	15	0	1
TAP	15	0	6
TAP	15	192	2
TAP	15	192	5
HLD	16	0	4	96
TAP	16	96	2
HLD	16	192	3	96
TAP	16	288	5
TAP	17	0	4
TAP	17	96	3
TAP	17	192	2
TAP	17	288	1
HLD	18	0	2	96
TAP	18	192	1
TAP	18	192	6
TAP	19	0	2
TAP	19	96	2
TAP	19	96	5
TAP	19	192	0
TAP	19	288	7
TAP	20	0	1
TAP	20	0	3
TAP	20	96	2
TAP	20	96	4
TAP	20	192	3
TAP	20	192	5
STR	20	288	5
SI_	20	288	5	96	96	1
TAP	21	192	2
TAP	22	0	4
TAP	22	0	5
TAP	22	96	4
TAP	22	96	5
TAP	22	192	4
TAP	22	192	5
TAP	23	0	4
TAP	23	96	3
TAP	23	192	2
TAP	23	288	1
TAP	24	0	0
TAP	24	96	7
TAP	24	192	6
TAP	25	0	2
TAP	25	96	1
TAP	25	192	5
TAP	25	288	6
HLD	26	0	4	95
TAP	26	96	3
HLD	26	192	3	96
TAP	26	288	4
TAP	27	0	0
TAP	27	0	7
TAP	27	192	1
TAP	27	192	6
TAP	28	0	0
TAP	28	0	5
TAP	28	192	0
TAP	28	192	5
HLD	29	0	1	288
HLD	29	0	2	288
TAP	30	0	3
TAP	30	96	5
TAP	30	96	6
HLD	30	192	7	96
TAP	31	0	4
TAP	31	96	3
TAP	31	192	3
TAP	31	192	4
STR	32	0	1
SCL	32	0	1	96	192	6
STR	33	0	0
SI_	33	0	0	96	96	3
STR	33	0	7
SI_	33	0	7	96	96	4
HLD	34	0	5	96
HLD	34	192	2	96
HLD	35	0	6	96
HLD	35	192	1	96
STR	36	0	0
SI_	36	0	0	96	96	4
TAP	37	0	4
HLD	37	0	6	192
TAP	37	192	5
HLD	38	0	1	192
TAP	38	0	7
TAP	38	192	0
STR	39	0	6
SI_	39	0	6	96	192	1
TAP	40	0	3
TAP	40	96	3
TAP	40	96	4
TAP	40	192	2
TAP	40	192	3
TAP	41	0	2
TAP	41	0	5
BRK	41	96	0
TAP	41	144	0
TAP	41	240	3
TAP	41	240	4
TAP	41	336	1
TAP	41	336	6
TAP	42	48	5
TAP	42	96	5
BRK	42	192	1
BRK	42	192	7
TAP	43	0	0
TAP	43	0	5
TAP	43	96	7
TAP	43	192	6
TAP	43	288	7
TAP	44	0	2
TAP	44	0	7
TAP	44	96	0
TAP	44	192	1
TAP	44	288	0
TAP	45	0	2
TAP	45	0	3
TAP	45	96	5
TAP	45	144	5
TAP	45	240	1
TAP	45	240	6
TAP	45	336	0
TAP	45	336	7
TAP	46	48	2
TAP	46	96	2
TAP	46	192	1
TAP	46	192	6
TAP	47	0	5
TAP	47	96	4
TAP	47	192	3
TAP	47	288	2
TAP	48	0	6
TAP	48	96	7
TAP	48	192	1
TAP	48	192	6
TAP	49	0	4
TAP	49	0	5
TAP	49	96	1
TAP	49	144	1
TAP	49	240	0
TAP	49	240	7
TAP	49	336	6
TAP	50	48	4
TAP	50	96	4
BRK	50	192	2
BRK	50	192	5
TAP	51	0	0
TAP	51	0	1
TAP	51	96	6
TAP	51	192	1
TAP	51	192	2
TAP	51	288	5
TAP	52	0	2
TAP	52	96	3
TAP	52	192	4
TAP	52	288	5
TAP	53	0	1
TAP	53	0	5
TAP	53	96	7
TAP	53	144	7
TAP	53	240	2
TAP	53	240	6
TAP	53	336	1
TAP	53	336	7
TAP	54	48	5
TAP	54	96	5
TAP	54	96	7
TAP	54	192	1
TAP	54	192	6
TAP	55	0	6
TAP	55	0	7
TAP	55	96	0
TAP	55	96	1
TAP	55	192	2
TAP	55	192	3
TAP	55	288	4
TAP	55	288	5
TAP	56	0	0
TAP	56	96	7
BRK	56	192	1
BRK	56	192	6
TAP	57	0	6
TAP	57	0	7
TAP	57	192	0
TAP	57	192	1
TAP	58	0	6
TAP	58	0	7
TAP	58	192	0
TAP	58	192	1
TAP	59	0	0
TAP	59	0	6
TAP	59	192	1
TAP	59	192	7
TAP	60	0	0
TAP	60	0	6
TAP	60	192	1
TAP	60	192	7
HLD	61	0	5	96
TAP	61	96	7
HLD	61	192	2	96
TAP	61	288	0
HLD	62	0	5	96
TAP	62	96	7
HLD	62	192	2	96
TAP	62	288	0
TAP	63	0	0
TAP	63	0	6
TAP	63	96	6
TAP	63	192	1
TAP	63	192	7
TAP	63	288	1
TAP	64	0	0
TAP	64	0	6
TAP	64	96	6
TAP	64	192	1
TAP	64	192	7
TAP	64	288	1
TAP	65	0	1
TAP	65	96	0
TAP	65	192	7
TAP	65	288	6
TAP	66	0	0
TAP	66	0	7
TAP	66	96	0
TAP	66	96	7
TAP	66	192	0
TAP	66	192	7
TAP	67	0	1
TAP	67	96	2
TAP	67	192	4
HLD	67	192	5	96
TAP	67	288	4
TAP	68	0	2
TAP	68	0	3
TAP	68	96	4
TAP	68	96	5
TAP	68	192	1
TAP	68	192	2
TAP	69	0	1
TAP	69	96	0
TAP	69	192	7
TAP	69	288	4
TAP	69	288	6
TAP	70	0	2
TAP	70	0	3
TAP	70	96	4
TAP	70	96	5
TAP	70	192	1
TAP	70	192	3
TAP	71	0	6
TAP	71	96	5
TAP	71	192	1
TAP	71	288	2
TAP	72	0	2
TAP	72	0	5
STR	72	96	0
SI_	72	96	0	96	96	3
TAP	73	0	5
TAP	73	96	7
TAP	73	192	2
TAP	73	288	0
HLD	74	0	6	192
TAP	74	96	7
TAP	74	192	0
TAP	75	0	1
STR	75	96	2
SCR	75	96	2	96	96	5
TAP	76	0	5
STR	76	96	6
SCR	76	96	6	96	96	1
TAP	77	0	7
STR	77	96	7
SCL	77	96	7	96	96	4
TAP	78	0	0
STR	78	96	0
SCR	78	96	0	96	96	3
TAP	79	0	1
TAP	79	0	3
TAP	79	96	2
TAP	79	96	4
TAP	79	192	3
TAP	79	192	5
TAP	79	288	4
TAP	79	288	6
HLD	80	0	7	96
TAP	80	96	6
HLD	80	192	0	96
TAP	80	288	1
TAP	81	0	5
TAP	81	96	4
TAP	81	192	3
TAP	81	288	2
TAP	81	336	3
TAP	82	0	2
TAP	82	96	4
TAP	82	192	5
TAP	82	192	6
HLD	83	0	1	96
TAP	83	96	2
HLD	83	192	2	96
TAP	83	288	3
HLD	84	0	3	96
TAP	84	96	4
TAP	84	192	0
TAP	84	192	7
TAP	85	0	2
TAP	85	96	3
TAP	85	192	4
TAP	85	288	5
TAP	85	336	4
TAP	86	0	5
TAP	86	96	2
TAP	86	192	1
TAP	86	192	6
TAP	87	0	5
TAP	87	96	4
TAP	87	192	3
TAP	87	288	2
BRK	88	0	1
BRK	88	0	7
BRK	88	96	0
BRK	88	96	6
BRK	88	192	2
BRK	88	192	7

T_REC_TAP	286
T_REC_BRK	13
T_REC_XTP	0
T_REC_HLD	35
T_REC_XHO	0
T_REC_STR	11
T_REC_BST	0
T_REC_XST	0
T_REC_TTP	0
T_REC_THO	0
T_REC_SLD	11
T_REC_ALL	356
T_NUM_TAP	297
T_NUM_BRK	13
T_NUM_HLD	35
T_NUM_SLD	11
T_NUM_ALL	356
T_JUDGE_TAP	310
T_JUDGE_HLD	84
T_JUDGE_SLD	11
T_JUDGE_ALL	405
TTM_EACHPAIRS	82
TTM_SCR_TAP	148500
TTM_SCR_BRK	33800
TTM_SCR_HLD	35000
TTM_SCR_SLD	16500
TTM_SCR_ALL	233800
TTM_SCR_S	225550
TTM_SCR_SS	232500
TTM_RAT_ACV	10055

