VERSION	0.00.00	1.03.00
FES_MODE	0
BPM_DEF	205.000	205.000	205.000	205.000
MET_DEF	4	4
RESOLUTION	384
CLK_DEF	384
COMPATIBLE_CODE	MA2

BPM	0	0	205.000
MET	0	0	4	4

TAP	5	96	0
TAP	5	288	1
TAP	6	96	2
TAP	6	288	3
TAP	7	96	4
TAP	7	288	5
TAP	8	96	6
TAP	8	192	6
TAP	9	96	7
TAP	9	288	6
TAP	10	96	5
TAP	10	288	4
TAP	11	96	3
TAP	11	288	2
TAP	12	96	1
TAP	12	192	1
TAP	13	96	7
TAP	13	192	7
TAP	13	288	0
STR	14	96	1
SI_	14	96	1	96	96	6
TAP	15	96	3
TAP	15	192	3
TAP	15	288	4
STR	16	96	5
SI_	16	96	5	96	96	2
TAP	17	96	7
TAP	17	192	7
TAP	17	288	6
STR	18	96	7
SI_	18	96	7	96	96	4
TAP	19	96	3
TAP	19	192	3
TAP	19	288	2
STR	20	96	3
SI_	20	96	3	96	96	0
TAP	21	96	7
TAP	21	288	6
TAP	22	96	5
TAP	22	288	4
TAP	23	96	3
TAP	23	288	2
TAP	24	96	1
TAP	24	192	1
TAP	25	96	0
TAP	25	192	1
TAP	25	288	0
TAP	26	96	2
TAP	26	192	2
TAP	27	96	4
TAP	27	192	5
TAP	27	288	4
TAP	28	0	5
TAP	28	96	6
TAP	28	192	6
TAP	29	96	2
TAP	29	192	3
TAP	29	288	2
TAP	30	96	0
TAP	30	192	1
TAP	30	288	0
TAP	31	96	7
TAP	31	192	6
TAP	31	288	7
TAP	32	0	5
TAP	32	96	1
TAP	32	96	6
TAP	32	192	1
TAP	32	192	6
HLD	33	0	1	384
TAP	33	288	2
TAP	34	0	5
TAP	34	96	7
TAP	34	192	0
BRK	34	192	7
HLD	35	0	5	672
TAP	35	192	2
TAP	36	0	7
TAP	36	192	0
HLD	37	0	6	384
TAP	37	288	5
TAP	38	0	2
TAP	38	96	0
BRK	38	192	0
TAP	38	192	7
TAP	39	0	1
TAP	39	192	5
TAP	40	0	2
TAP	40	0	3
TAP	40	96	4
TAP	40	96	5
TAP	40	192	2
TAP	40	192	3
TAP	41	96	1
TAP	41	288	2
TAP	42	96	7
TAP	42	192	7
HLD	43	0	7	192
HLD	43	192	0	192
TAP	44	96	1
TAP	44	192	2
TAP	44	288	1
TAP	44	288	6
TAP	45	96	6
TAP	45	288	5
TAP	46	96	0
TAP	46	192	0
HLD	47	95	0	193
TAP	47	288	7
TAP	48	0	6
TAP	48	96	5
TAP	48	192	4
TAP	48	288	2
TAP	48	288	5
TAP	49	96	1
TAP	49	288	0
TAP	50	96	5
TAP	50	192	5
HLD	51	0	6	192
HLD	51	192	7	192
TAP	52	96	6
TAP	52	192	5
TAP	52	288	1
TAP	52	288	6
TAP	53	96	6
TAP	53	288	7
TAP	54	96	2
TAP	54	192	2
TAP	55	96	0
TAP	55	192	7
TAP	55	288	2
TAP	56	0	5
TAP	56	96	3
TAP	56	96	4
TAP	56	192	2
TAP	56	192	5
BRK	56	288	1
BRK	56	288	6
TAP	57	96	7
TAP	57	288	6
TAP	58	96	5
TAP	58	288	4
TAP	59	96	3
TAP	59	288	2
TAP	60	96	1
BRK	60	192	1
TAP	61	96	0
TAP	61	288	1
TAP	62	96	2
TAP	62	288	3
TAP	63	96	4
TAP	63	288	5
TAP	64	96	6
BRK	64	192	6
TAP	65	96	0
TAP	65	192	1
TAP	65	288	0
TAP	66	96	2
TAP	66	192	2
TAP	67	96	4
TAP	67	192	5
TAP	67	288	4
TAP	68	0	5
TAP	68	96	6
TAP	68	96	7
TAP	68	192	5
TAP	68	192	6
TAP	69	96	2
TAP	69	192	3
TAP	69	288	2
TAP	70	96	0
TAP	70	192	1
TAP	70	288	0
TAP	71	96	7
TAP	71	192	6
TAP	71	288	7
TAP	72	0	5
TAP	72	96	4
TAP	72	96	5
TAP	72	192	3
TAP	72	192	4
STR	73	96	1
SI_	73	96	1	96	96	6
STR	74	96	5
SI_	74	96	5	96	96	2
STR	75	96	3
SI_	75	96	3	96	96	6
STR	76	96	1
SI_	76	96	1	96	96	4
STR	77	96	7
SI_	77	96	7	96	96	4
STR	78	96	3
SI_	78	96	3	96	96	0
STR	79	96	6
SI_	79	96	6	96	96	1
TAP	80	0	0
TAP	80	0	1
TAP	80	96	6
TAP	80	96	7
TAP	80	192	2
TAP	80	192	5
BRK	80	288	1
BRK	80	288	6
HLD	81	0	7	384
TAP	81	288	2
TAP	82	0	5
TAP	82	96	1
BRK	82	96	6
TAP	82	192	1
BRK	82	192	6
TAP	83	0	7
TAP	83	192	0
TAP	84	0	1
TAP	84	192	2
HLD	85	0	0	384
TAP	85	288	6
TAP	86	0	1
TAP	86	96	2
BRK	86	96	5
TAP	86	192	2
BRK	86	192	5
TAP	87	0	1
TAP	87	192	0
TAP	88	0	6
TAP	88	0	7
TAP	88	96	0
TAP	88	96	1
TAP	88	192	6
TAP	88	192	7

T_REC_TAP	185
T_REC_BRK	12
T_REC_XTP	0
T_REC_HLD	10
T_REC_XHO	0
T_REC_STR	11
T_REC_BST	0
T_REC_XST	0
T_REC_TTP	0
T_REC_THO	0
T_REC_SLD	11
T_REC_ALL	229
T_NUM_TAP	196
T_NUM_BRK	12
T_NUM_HLD	10
T_NUM_SLD	11
T_NUM_ALL	229
T_JUDGE_TAP	208
T_JUDGE_HLD	67
T_JUDGE_SLD	11
T_JUDGE_ALL	286
TTM_EACHPAIRS	28
TTM_SCR_TAP	98000
TTM_SCR_BRK	31200
TTM_SCR_HLD	10000
TTM_SCR_SLD	16500
TTM_SCR_ALL	155700
TTM_SCR_S	149900
TTM_SCR_SS	154500
TTM_RAT_ACV	10077

