VERSION	0.00.00	1.03.00
FES_MODE	0
BPM_DEF	205.000	205.000	205.000	205.000
MET_DEF	4	4
RESOLUTION	384
CLK_DEF	384
COMPATIBLE_CODE	MA2

BPM	0	0	205.000
MET	0	0	4	4

TAP	5	0	3
TAP	5	192	4
TAP	6	0	3
TAP	6	192	4
TAP	7	0	3
TAP	7	192	4
TAP	8	0	5
TAP	8	192	6
TAP	9	0	7
TAP	9	192	0
TAP	10	0	7
TAP	10	192	0
TAP	11	0	7
TAP	11	192	0
TAP	12	0	7
TAP	12	192	0
TAP	13	0	2
TAP	13	192	3
TAP	14	0	4
TAP	14	192	5
TAP	15	0	6
TAP	15	192	2
TAP	15	192	5
TAP	16	0	4
TAP	16	192	3
TAP	17	0	2
TAP	17	192	1
TAP	17	192	2
TAP	18	0	2
TAP	18	192	1
TAP	18	192	6
TAP	19	0	2
TAP	19	192	2
TAP	19	192	5
TAP	20	0	4
TAP	20	192	3
BRK	21	0	4
TAP	21	192	3
TAP	22	0	5
TAP	22	96	5
TAP	22	192	5
TAP	23	0	4
TAP	23	192	3
TAP	24	0	2
TAP	24	192	3
TAP	25	0	2
TAP	25	192	3
TAP	26	0	4
TAP	26	192	3
TAP	27	0	0
TAP	27	192	7
TAP	28	0	0
TAP	28	0	5
TAP	28	192	0
TAP	28	192	5
HLD	29	0	2	288
TAP	30	0	1
TAP	30	192	0
STR	31	192	6
SI_	31	192	6	96	192	1
HLD	33	0	0	192
HLD	33	0	7	192
TAP	34	0	7
TAP	34	192	0
STR	35	0	1
SI_	35	0	1	96	192	5
HLD	37	0	1	192
TAP	38	0	0
TAP	38	192	7
STR	39	0	6
SI_	39	0	6	96	192	2
TAP	41	0	0
TAP	41	0	7
TAP	41	192	3
TAP	41	192	4
TAP	42	0	2
TAP	42	192	1
TAP	43	0	0
TAP	43	192	7
TAP	43	288	7
TAP	44	0	0
TAP	44	192	0
TAP	44	288	0
TAP	45	192	2
TAP	46	0	3
TAP	46	192	4
TAP	47	0	3
TAP	47	0	4
TAP	47	192	3
TAP	47	192	4
TAP	48	0	4
TAP	48	192	4
TAP	49	0	4
TAP	49	0	5
TAP	49	192	4
TAP	50	0	2
TAP	50	0	3
TAP	50	192	2
TAP	51	0	0
TAP	51	0	1
TAP	51	192	1
TAP	52	0	2
TAP	52	192	3
TAP	53	0	4
TAP	53	192	3
TAP	53	192	4
TAP	54	0	1
TAP	54	0	7
TAP	54	192	0
TAP	54	192	6
TAP	55	0	7
TAP	55	192	0
TAP	56	0	2
TAP	56	0	5
BRK	56	192	1
TAP	57	0	4
TAP	57	192	3
TAP	58	0	4
TAP	58	192	3
TAP	59	0	4
TAP	59	192	3
TAP	60	0	4
TAP	60	192	3
TAP	61	0	5
TAP	61	192	2
TAP	62	0	5
TAP	62	192	2
TAP	63	0	5
TAP	63	192	2
TAP	64	0	5
TAP	64	192	2
TAP	65	0	0
TAP	65	192	0
TAP	66	0	1
TAP	66	96	1
TAP	66	192	1
TAP	67	0	4
TAP	67	0	5
TAP	67	192	2
TAP	67	192	3
TAP	68	0	4
TAP	68	192	5
TAP	69	0	3
TAP	69	0	4
TAP	69	192	4
TAP	69	192	5
TAP	70	0	2
TAP	70	0	3
TAP	70	96	4
TAP	70	192	3
TAP	71	0	2
TAP	71	192	1
STR	72	0	0
SI_	72	0	0	96	192	3
TAP	73	0	2
TAP	73	192	1
TAP	73	192	6
TAP	74	0	5
TAP	74	192	1
TAP	74	192	6
TAP	75	0	2
TAP	75	192	1
TAP	75	192	6
TAP	76	0	1
TAP	76	0	6
TAP	76	192	1
TAP	76	192	6
TAP	77	0	0
TAP	77	192	1
TAP	77	192	6
TAP	78	0	7
TAP	78	96	7
TAP	78	192	1
TAP	78	192	6
TAP	79	0	1
TAP	79	192	0
TAP	79	192	7
TAP	80	0	0
TAP	80	96	7
TAP	80	192	1
BRK	80	288	6
TAP	81	0	0
TAP	81	192	0
TAP	82	0	1
TAP	82	192	2
TAP	82	192	3
TAP	83	0	0
TAP	83	192	7
TAP	84	0	6
TAP	84	192	4
TAP	84	192	5
TAP	85	0	4
TAP	85	192	5
TAP	86	0	6
TAP	86	192	1
TAP	86	192	6
TAP	87	0	7
TAP	87	192	7
TAP	88	0	1
TAP	88	96	1
TAP	88	192	2
TAP	88	192	7

T_REC_TAP	187
T_REC_BRK	3
T_REC_XTP	0
T_REC_HLD	4
T_REC_XHO	0
T_REC_STR	4
T_REC_BST	0
T_REC_XST	0
T_REC_TTP	0
T_REC_THO	0
T_REC_SLD	4
T_REC_ALL	202
T_NUM_TAP	191
T_NUM_BRK	3
T_NUM_HLD	4
T_NUM_SLD	4
T_NUM_ALL	202
T_JUDGE_TAP	194
T_JUDGE_HLD	18
T_JUDGE_SLD	4
T_JUDGE_ALL	216
TTM_EACHPAIRS	35
TTM_SCR_TAP	95500
TTM_SCR_BRK	7800
TTM_SCR_HLD	4000
TTM_SCR_SLD	6000
TTM_SCR_ALL	113300
TTM_SCR_S	109650
TTM_SCR_SS	113000
TTM_RAT_ACV	10026

