VERSION	0.00.00	1.03.00
FES_MODE	0
BPM_DEF	100.000	200.000	200.000	100.000
MET_DEF	4	4
RESOLUTION	384
CLK_DEF	384
COMPATIBLE_CODE	MA2

BPM	0	0	100.000
BPM	1	0	200.000
MET	0	0	4	4

BRK	1	0	3
BRK	1	0	7
TAP	1	48	6
TAP	1	96	5
BRK	1	144	0
BRK	1	144	4
TAP	1	192	1
TAP	1	240	2
BRK	1	288	3
BRK	1	288	7
STR	2	96	0
SI_	2	96	0	96	48	4
TAP	2	144	7
BRK	2	192	0
BRK	2	192	6
TAP	3	0	6
TAP	3	0	7
TAP	3	96	1
TAP	3	96	2
TAP	3	192	4
TAP	3	192	5
TAP	3	288	0
TAP	3	288	1
STR	4	0	0
SI_	4	0	0	96	48	2
TAP	4	48	4
STR	4	96	0
SI_	4	96	0	96	48	6
TAP	4	144	4
STR	4	192	0
SI_	4	192	0	96	48	4
TAP	4	240	4
TAP	4	288	0
TAP	5	0	0
TAP	5	0	1
TAP	5	96	5
TAP	5	96	6
TAP	5	192	2
TAP	5	192	3
TAP	5	288	6
TAP	5	288	7
STR	6	0	7
SI_	6	0	7	96	48	5
TAP	6	48	3
STR	6	96	7
SI_	6	96	7	96	48	1
TAP	6	144	3
STR	6	192	7
SI_	6	192	7	96	48	3
TAP	6	240	3
TAP	6	288	7
TAP	7	0	6
TAP	7	0	7
TAP	7	96	1
TAP	7	96	2
TAP	7	192	4
TAP	7	192	5
TAP	7	288	0
TAP	7	288	1
STR	8	0	0
SI_	8	0	0	96	48	2
TAP	8	48	4
STR	8	96	0
SI_	8	96	0	96	48	6
TAP	8	144	4
STR	8	192	0
SI_	8	192	0	96	48	4
TAP	8	240	4
TAP	8	288	0
TAP	9	0	0
TAP	9	0	1
TAP	9	96	5
TAP	9	96	6
TAP	9	192	2
TAP	9	192	3
STR	9	288	1
SCR	9	288	1	96	96	5
STR	9	288	5
SCR	9	288	5	96	96	1
TAP	9	336	1
TAP	9	336	5
BRK	10	192	2
BRK	10	192	6
TAP	11	0	7
TAP	11	48	7
TAP	11	96	2
TAP	11	144	2
TAP	11	192	0
TAP	11	240	0
TAP	11	288	1
TAP	11	336	1
STR	12	0	0
SCL	12	0	0	96	48	5
STR	12	48	1
SCR	12	48	1	96	48	4
TAP	12	96	0
TAP	12	144	1
STR	12	192	6
SCL	12	192	6	96	48	3
STR	12	240	7
SCR	12	240	7	96	48	2
TAP	12	288	6
TAP	12	336	7
TAP	13	0	4
TAP	13	48	4
TAP	13	96	1
TAP	13	144	1
TAP	13	192	3
TAP	13	240	3
TAP	13	288	2
TAP	13	336	2
STR	14	0	3
SCR	14	0	3	96	48	6
STR	14	48	2
SCL	14	48	2	96	48	7
TAP	14	96	3
TAP	14	144	2
STR	14	192	5
SCR	14	192	5	96	48	0
STR	14	240	4
SCL	14	240	4	96	48	1
TAP	14	288	5
TAP	14	336	4
TAP	15	0	6
TAP	15	48	6
TAP	15	96	0
TAP	15	144	0
TAP	15	192	7
TAP	15	240	7
TAP	15	288	1
TAP	15	336	1
HLD	16	0	7	24
HLD	16	48	0	24
HLD	16	96	7	24
HLD	16	144	0	24
HLD	16	192	7	24
HLD	16	240	0	24
HLD	16	288	7	24
HLD	16	336	0	24
TAP	17	0	7
TAP	17	48	1
TAP	17	96	6
TAP	17	144	2
TAP	17	192	2
TAP	17	192	6
TAP	17	240	1
TAP	17	240	5
TAP	17	288	0
TAP	17	288	4
TAP	17	336	3
TAP	17	336	7
STR	18	0	2
SCR	18	0	2	96	96	2
STR	18	0	6
SCR	18	0	6	96	96	6
STR	19	0	0
SI_	19	0	0	96	48	2
STR	19	0	7
SI_	19	0	7	96	48	3
STR	19	96	0
SI_	19	96	0	96	48	4
STR	19	96	7
SI_	19	96	7	96	48	5
STR	19	192	0
SI_	19	192	0	96	48	2
STR	19	192	7
SI_	19	192	7	96	48	3
STR	19	288	0
SI_	19	288	0	96	48	4
STR	19	288	7
SI_	19	288	7	96	48	5
STR	20	0	0
SCR	20	0	0	96	48	2
STR	20	0	7
SI_	20	0	7	96	48	2
STR	20	96	0
SI_	20	96	0	96	48	5
STR	20	96	7
SCL	20	96	7	96	48	5
STR	20	192	0
SCR	20	192	0	96	48	2
STR	20	192	7
SV_	20	192	7	96	48	2
STR	20	288	0
SV_	20	288	0	96	48	5
STR	20	288	7
SCL	20	288	7	96	48	5
STR	21	0	0
SCR	21	0	0	96	48	3
STR	21	0	7
SUR	21	0	7	96	48	3
STR	21	96	0
SUL	21	96	0	96	48	4
STR	21	96	7
SCL	21	96	7	96	48	4
TAP	21	192	0
TAP	21	192	7
TAP	21	336	2
TAP	21	336	6
STR	22	0	0
SI_	22	0	0	96	48	3
SCR	22	0	0	96	48	3
BST	22	96	0
SI_	22	96	0	96	48	5
SCL	22	96	0	96	48	5
BST	22	192	0
SF_	22	192	0	96	48	4
BRK	22	288	0
TAP	23	0	1
TAP	23	0	2
TAP	23	48	0
TAP	23	96	7
TAP	23	144	0
TAP	23	192	5
TAP	23	192	6
TAP	23	240	7
TAP	23	288	0
TAP	23	336	7
TAP	24	0	1
TAP	24	0	2
TAP	24	48	3
TAP	24	96	4
TAP	24	144	3
TAP	24	192	5
TAP	24	192	6
TAP	24	240	4
TAP	24	288	3
TAP	24	336	4
TAP	25	0	1
TAP	25	0	5
TAP	25	48	1
TAP	25	48	5
TAP	25	96	2
TAP	25	96	6
TAP	25	144	2
TAP	25	144	6
TAP	25	192	3
TAP	25	192	7
TAP	25	240	3
TAP	25	240	7
TAP	25	288	0
TAP	25	288	4
TAP	25	336	0
TAP	25	336	4
STR	26	0	1
SCL	26	0	1	96	96	1
STR	26	0	5
SCL	26	0	5	96	96	5
STR	27	0	0
SI_	27	0	0	96	48	4
STR	27	0	7
SI_	27	0	7	96	48	5
STR	27	96	0
SI_	27	96	0	96	48	2
STR	27	96	7
SI_	27	96	7	96	48	3
STR	27	192	0
SI_	27	192	0	96	48	4
STR	27	192	7
SI_	27	192	7	96	48	5
STR	27	288	0
SI_	27	288	0	96	48	2
STR	27	288	7
SI_	27	288	7	96	48	3
STR	28	0	0
SI_	28	0	0	96	48	5
STR	28	0	7
SCL	28	0	7	96	48	5
STR	28	96	0
SCR	28	96	0	96	48	2
STR	28	96	7
SI_	28	96	7	96	48	2
STR	28	192	0
SV_	28	192	0	96	48	5
STR	28	192	7
SCL	28	192	7	96	48	5
STR	28	288	0
SCR	28	288	0	96	48	2
STR	28	288	7
SV_	28	288	7	96	48	2
STR	29	0	0
SUL	29	0	0	96	48	4
STR	29	0	7
SCL	29	0	7	96	48	4
STR	29	96	0
SCR	29	96	0	96	48	3
STR	29	96	7
SUR	29	96	7	96	48	3
TAP	29	192	0
TAP	29	192	7
TAP	29	336	1
TAP	29	336	5
STR	30	0	7
SI_	30	0	7	96	48	4
SCL	30	0	7	96	48	4
BST	30	96	7
SI_	30	96	7	96	48	2
SCR	30	96	7	96	48	2
BST	30	192	7
SF_	30	192	7	96	48	3
BRK	30	288	7
TAP	31	0	5
TAP	31	0	6
TAP	31	48	0
TAP	31	96	7
TAP	31	144	0
TAP	31	192	1
TAP	31	192	2
TAP	31	240	7
TAP	31	288	0
TAP	31	336	7
TAP	32	0	5
TAP	32	0	6
TAP	32	48	3
TAP	32	96	4
TAP	32	144	3
TAP	32	192	1
TAP	32	192	2
TAP	32	240	4
TAP	32	288	3
TAP	32	336	4
TAP	33	0	0
TAP	33	48	2
TAP	33	48	7
TAP	33	96	1
TAP	33	120	0
TAP	33	144	1
TAP	33	168	0
TAP	33	192	1
TAP	33	240	2
TAP	33	240	7
TAP	33	288	0
TAP	33	312	7
TAP	33	336	0
TAP	33	360	7
TAP	34	0	0
TAP	34	48	6
TAP	34	72	7
TAP	34	96	6
TAP	34	120	7
TAP	34	144	6
TAP	34	192	0
TAP	34	192	7
TAP	34	204	1
TAP	34	204	6
TAP	34	216	2
TAP	34	216	5
TAP	34	228	3
TAP	34	228	4
BRK	34	288	1
BRK	34	288	6
BRK	36	192	1
BRK	36	192	6
HLD	37	0	2	96
HLD	37	96	3	96
HLD	37	192	1	96
HLD	37	288	4	96
HLD	38	0	2	96
BRK	38	48	0
HLD	38	96	3	96
BRK	38	144	0
HLD	38	192	2	96
BRK	38	240	0
HLD	38	288	3	96
BRK	38	336	0
HLD	39	0	1	96
HLD	39	96	0	96
HLD	39	192	2	96
HLD	39	288	7	96
HLD	40	0	1	96
BRK	40	48	3
HLD	40	96	0	96
BRK	40	144	3
HLD	40	192	1	96
BRK	40	240	3
HLD	40	288	0	96
BRK	40	336	3
HLD	41	0	2	96
HLD	41	96	3	96
HLD	41	192	1	96
HLD	41	288	4	96
HLD	42	0	2	96
BRK	42	48	0
HLD	42	96	3	96
BRK	42	144	0
HLD	42	192	2	96
BRK	42	240	0
HLD	42	288	3	96
BRK	42	336	0
HLD	43	0	0	96
HLD	43	96	6	96
HLD	43	192	4	384
HLD	43	288	2	48
HLD	44	0	0	192
BRK	44	204	3
BRK	44	204	7
BRK	44	216	2
BRK	44	216	6
BRK	44	228	1
BRK	44	228	5
BRK	44	240	0
BRK	44	240	4
HLD	45	0	3	96
HLD	45	96	4	96
HLD	45	192	2	96
HLD	45	288	5	48
HLD	46	0	1	48
BRK	46	0	7
BRK	46	48	7
HLD	46	96	5	48
BRK	46	96	7
BRK	46	144	7
HLD	46	192	1	48
BRK	46	192	7
BRK	46	240	7
HLD	46	288	5	48
BRK	46	288	7
BRK	46	336	7
HLD	47	0	0	96
HLD	47	96	7	96
HLD	47	192	1	96
HLD	47	288	6	48
HLD	48	0	2	48
BRK	48	0	4
BRK	48	48	4
BRK	48	96	4
HLD	48	96	6	48
BRK	48	144	4
HLD	48	192	2	48
BRK	48	192	4
BRK	48	240	4
BRK	48	288	4
HLD	48	288	6	48
BRK	48	336	4
HLD	49	0	3	96
HLD	49	96	4	96
HLD	49	192	2	96
HLD	49	288	5	384
BRK	50	0	0
BRK	50	48	0
BRK	50	96	0
BRK	50	144	0
BRK	50	192	0
BRK	50	240	0
BRK	50	288	0
BRK	50	336	0
BRK	51	0	0
BRK	51	0	4
BRK	51	48	0
BRK	51	48	4
BRK	51	96	0
BRK	51	96	5
BRK	51	144	0
BRK	51	144	5
BRK	51	192	0
BRK	51	192	6
BRK	51	240	0
BRK	51	240	6
BRK	51	288	0
BRK	51	288	7
BRK	51	336	0
BRK	51	336	7
BRK	52	0	0
BRK	52	0	7
TAP	52	192	0
TAP	52	192	7
TAP	52	204	1
TAP	52	204	6
TAP	52	216	2
TAP	52	216	5
BRK	52	228	3
BRK	52	228	4
BRK	53	0	3
BRK	53	0	7
TAP	53	48	2
TAP	53	96	1
BRK	53	144	0
BRK	53	144	4
TAP	53	192	5
TAP	53	240	6
BRK	53	288	3
BRK	53	288	7
STR	54	0	2
SCL	54	0	2	96	48	0
STR	54	0	6
SCR	54	0	6	96	48	0
HLD	54	48	2	48
HLD	54	48	6	48
STR	54	192	1
SCL	54	192	1	96	48	7
STR	54	192	5
SCR	54	192	5	96	48	7
HLD	54	240	1	48
HLD	54	240	5	48
TAP	55	0	0
TAP	55	0	1
STR	55	96	0
SXR	55	96	0	96	144	5
STR	55	96	1
SUR	55	96	1	96	144	4
TAP	56	0	2
TAP	56	0	3
STR	56	96	4
SUL	56	96	4	96	144	1
STR	56	96	5
SXL	56	96	5	96	144	0
TAP	56	144	4
TAP	56	144	5
HLD	57	0	6	768
TAP	57	0	7
TAP	57	96	0
TAP	57	192	1
TAP	57	336	1
TAP	58	0	0
TAP	58	12	1
TAP	58	24	2
TAP	58	36	3
TAP	58	48	4
TAP	58	60	5
TAP	58	84	7
TAP	58	96	0
TAP	58	108	1
TAP	58	120	2
TAP	58	132	3
TAP	58	144	4
TAP	58	156	5
TAP	58	180	7
TAP	58	192	0
TAP	58	204	1
TAP	58	216	2
TAP	58	228	3
TAP	58	240	4
TAP	58	252	5
TAP	58	276	7
TAP	58	288	0
TAP	58	300	1
TAP	58	312	2
TAP	58	324	3
TAP	58	336	4
TAP	58	348	5
TAP	58	372	7
TAP	59	0	0
TAP	59	64	0
TAP	59	96	1
TAP	59	160	1
TAP	59	192	2
TAP	59	256	2
STR	59	288	3
SI_	59	288	3	96	32	0
TAP	59	320	4
TAP	59	352	3
TAP	60	0	7
TAP	60	64	7
TAP	60	96	6
TAP	60	160	6
TAP	60	192	5
TAP	60	256	5
STR	60	288	4
SI_	60	288	4	96	32	7
TAP	60	320	3
TAP	60	352	4
STR	61	0	3
SUL	61	0	3	96	32	6
TAP	61	64	3
STR	61	96	4
SUR	61	96	4	96	32	1
TAP	61	160	4
STR	61	192	2
SUL	61	192	2	96	32	6
TAP	61	256	2
STR	61	288	5
SUR	61	288	5	96	32	1
TAP	61	352	5
TAP	62	0	1
BRK	62	192	6
TAP	62	204	5
TAP	62	204	7
TAP	62	216	0
TAP	62	216	4
TAP	62	228	1
TAP	62	228	3
BRK	62	240	2
TAP	63	0	6
TAP	63	0	7
STR	63	96	6
SUL	63	96	6	96	144	3
STR	63	96	7
SXL	63	96	7	96	144	2
TAP	64	0	4
TAP	64	0	5
STR	64	96	2
SXR	64	96	2	96	144	7
STR	64	96	3
SUR	64	96	3	96	144	6
TAP	64	144	2
TAP	64	144	3
TAP	65	0	0
HLD	65	0	1	768
TAP	65	96	7
TAP	65	192	6
TAP	65	336	6
TAP	66	0	7
TAP	66	12	6
TAP	66	24	5
TAP	66	36	4
TAP	66	48	3
TAP	66	60	2
TAP	66	84	0
TAP	66	96	7
TAP	66	108	6
TAP	66	120	5
TAP	66	132	4
TAP	66	144	3
TAP	66	156	2
TAP	66	180	0
TAP	66	192	7
TAP	66	204	6
TAP	66	216	5
TAP	66	228	4
TAP	66	240	3
TAP	66	252	2
TAP	66	276	0
TAP	66	288	7
TAP	66	300	6
TAP	66	312	5
TAP	66	324	4
TAP	66	336	3
TAP	66	348	2
TAP	66	372	0
TAP	67	0	7
TAP	67	64	7
TAP	67	96	6
TAP	67	160	6
TAP	67	192	5
TAP	67	256	5
STR	67	288	4
SI_	67	288	4	96	64	7
TAP	67	320	3
TAP	67	352	4
TAP	68	0	0
TAP	68	64	0
TAP	68	96	1
TAP	68	160	1
TAP	68	192	2
TAP	68	256	2
TAP	68	288	3
TAP	68	320	4
TAP	68	352	3
STR	69	0	4
SUR	69	0	4	96	48	1
STR	69	0	5
SCR	69	0	5	96	48	0
STR	69	192	2
SCL	69	192	2	96	48	7
STR	69	192	3
SUL	69	192	3	96	48	6
STR	70	0	0
SCL	70	0	0	96	48	5
STR	70	0	1
SUL	70	0	1	96	48	4
STR	70	192	6
SUR	70	192	6	96	48	3
STR	70	192	7
SCR	70	192	7	96	48	2
STR	71	0	7
SCL	71	0	7	96	48	4
STR	71	96	0
SCR	71	96	0	96	48	3
STR	71	192	7
SI_	71	192	7	96	48	4
STR	71	288	0
SI_	71	288	0	96	48	3
STR	72	0	7
SI_	72	0	7	96	48	3
STR	72	96	0
SI_	72	96	0	96	48	4
STR	72	192	7
SI_	72	192	7	96	48	2
TAP	72	288	0
STR	73	0	0
SI_	73	0	0	96	48	2
STR	73	48	7
SI_	73	48	7	96	48	3
STR	73	96	0
SI_	73	96	0	96	48	4
STR	73	144	7
SI_	73	144	7	96	48	5
STR	73	192	0
SCR	73	192	0	96	48	2
STR	73	240	7
SUR	73	240	7	96	48	3
STR	73	288	0
SUL	73	288	0	96	48	4
STR	73	336	7
SCL	73	336	7	96	48	5
STR	74	0	0
SI_	74	0	0	96	48	2
STR	74	48	7
SI_	74	48	7	96	48	3
STR	74	96	0
SI_	74	96	0	96	48	4
STR	74	144	7
SI_	74	144	7	96	48	5
STR	74	192	0
SCR	74	192	0	96	48	2
STR	74	240	7
SUR	74	240	7	96	48	3
TAP	74	288	0
TAP	74	336	7
TAP	75	48	2
TAP	75	96	5
TAP	75	192	3
TAP	75	240	3
TAP	75	288	4
TAP	75	336	4
STR	76	0	1
SLR	76	0	1	96	96	6
STR	76	0	5
SLR	76	0	5	96	96	2
TAP	76	48	1
TAP	76	48	5
BRK	76	288	1
TAP	76	288	5
TAP	76	300	0
BRK	76	300	4
TAP	76	312	3
BRK	76	312	7
BRK	76	324	2
TAP	76	324	6
TAP	76	336	1
BRK	76	336	5
BRK	76	348	0
TAP	76	348	4
BRK	76	360	3
TAP	76	360	7
TAP	76	372	2
BRK	76	372	6

T_REC_TAP	334
T_REC_BRK	96
T_REC_XTP	0
T_REC_HLD	63
T_REC_XHO	0
T_REC_STR	116
T_REC_BST	4
T_REC_XST	0
T_REC_TTP	0
T_REC_THO	0
T_REC_SLD	124
T_REC_ALL	737
T_NUM_TAP	450
T_NUM_BRK	100
T_NUM_HLD	63
T_NUM_SLD	124
T_NUM_ALL	737
T_JUDGE_TAP	550
T_JUDGE_HLD	145
T_JUDGE_SLD	124
T_JUDGE_ALL	819
TTM_EACHPAIRS	137
TTM_SCR_TAP	225000
TTM_SCR_BRK	260000
TTM_SCR_HLD	63000
TTM_SCR_SLD	186000
TTM_SCR_ALL	734000
TTM_SCR_S	702300
TTM_SCR_SS	724000
TTM_RAT_ACV	10138

