VERSION	0.00.00	1.03.00
FES_MODE	0
BPM_DEF	100.000	100.000	100.000	100.000
MET_DEF	4	4
RESOLUTION	384
CLK_DEF	384
COMPATIBLE_CODE	MA2

BPM	0	0	100.000
MET	0	0	4	4

TAP	1	0	6
BRK	1	0	7
TAP	1	24	0
TAP	1	48	7
BRK	1	72	0
TAP	1	72	7
TAP	1	96	1
TAP	1	120	0
TAP	1	144	0
BRK	1	144	1
TAP	1	168	2
TAP	1	192	1
TAP	1	240	2
TAP	1	252	1
TAP	1	264	0
BRK	1	288	6
BRK	1	320	6
BRK	1	352	6
TAP	2	0	5
TAP	2	48	2
TAP	2	96	6
TAP	2	144	1
TAP	2	192	5
TAP	2	216	0
TAP	2	240	6
TAP	2	264	2
TAP	2	288	6
TAP	2	312	1
TAP	2	336	4
TAP	2	360	0
TAP	3	0	7
TAP	3	48	6
TAP	3	96	0
TAP	3	144	1
TAP	3	192	7
TAP	3	216	0
TAP	3	240	6
TAP	3	264	1
TAP	3	288	5
TAP	3	312	2
TAP	3	336	4
TAP	3	360	3
TAP	4	0	0
TAP	4	48	1
TAP	4	96	7
TAP	4	144	6
TAP	4	192	3
TAP	4	216	4
TAP	4	240	2
TAP	4	264	5
TAP	4	288	1
TAP	4	312	6
TAP	4	336	0
TAP	4	360	7
TAP	5	0	1
TAP	5	24	1
TAP	5	48	6
TAP	5	72	6
TAP	5	96	3
TAP	5	120	3
TAP	5	144	7
HLD	5	168	7	96
TAP	5	288	0
TAP	5	294	1
TAP	5	300	2
BRK	5	306	3
TAP	6	0	0
TAP	6	24	0
TAP	6	48	5
TAP	6	72	5
TAP	6	96	2
TAP	6	120	2
TAP	6	144	7
TAP	6	168	7
TAP	6	192	0
TAP	6	216	4
TAP	6	240	1
TAP	6	264	5
TAP	6	288	2
TAP	6	312	6
TAP	6	336	3
TAP	6	360	7
TAP	7	0	6
TAP	7	24	6
TAP	7	48	3
TAP	7	72	3
TAP	7	96	4
TAP	7	120	4
TAP	7	144	1
TAP	7	168	1
TAP	7	192	7
TAP	7	216	3
TAP	7	240	6
TAP	7	264	2
TAP	7	288	5
TAP	7	312	1
TAP	7	336	4
TAP	7	360	0
TAP	8	0	6
TAP	8	24	1
TAP	8	48	2
TAP	8	72	5
TAP	8	96	7
TAP	8	120	4
TAP	8	144	3
TAP	8	168	0
TAP	8	192	3
TAP	8	192	7
TAP	8	216	7
TAP	8	240	2
TAP	8	240	7
TAP	8	264	7
TAP	8	288	1
TAP	8	288	7
TAP	8	312	7
TAP	8	336	0
TAP	8	336	7
TAP	8	360	7
HLD	9	0	0	192
TAP	9	0	7
TAP	9	24	7
TAP	9	48	5
TAP	9	72	5
TAP	9	96	4
TAP	9	120	4
TAP	9	144	3
TAP	9	168	3
TAP	9	192	2
TAP	9	240	4
TAP	9	246	5
TAP	9	252	6
BRK	9	258	7
STR	10	0	0
SCR	10	0	0	96	24	3
STR	10	48	7
SCL	10	48	7	96	24	4
STR	10	96	0
SI_	10	96	0	96	24	3
STR	10	144	7
SI_	10	144	7	96	24	4
STR	10	192	0
SI_	10	192	0	96	24	4
STR	10	240	7
SI_	10	240	7	96	24	3
STR	10	288	0
SI_	10	288	0	96	24	5
STR	10	336	7
SI_	10	336	7	96	24	2
STR	11	0	0
SCR	11	0	0	96	24	3
STR	11	48	7
SCL	11	48	7	96	24	4
TAP	11	96	0
TAP	11	168	1
TAP	11	192	2
TAP	11	240	0
TAP	11	240	2
TAP	11	264	2
TAP	11	264	7
TAP	11	288	0
TAP	11	288	2
TAP	11	312	2
TAP	11	312	7
TAP	11	336	0
TAP	11	336	2
TAP	11	360	2
TAP	11	360	7
TAP	12	0	0
TAP	12	24	0
TAP	12	48	1
TAP	12	72	1
TAP	12	96	2
TAP	12	120	2
TAP	12	144	3
TAP	12	168	3
TAP	12	192	7
TAP	12	216	7
TAP	12	240	6
TAP	12	264	6
TAP	12	288	5
TAP	12	312	5
TAP	12	336	4
TAP	12	360	4
TAP	13	0	0
TAP	13	24	1
TAP	13	48	2
TAP	13	72	3
TAP	13	96	4
TAP	13	120	5
TAP	13	144	6
TAP	13	168	7
TAP	13	192	0
TAP	13	192	7
TAP	13	264	1
TAP	13	270	0
TAP	13	276	7
BRK	13	282	6
STR	14	0	7
SCL	14	0	7	96	24	4
STR	14	48	0
SCR	14	48	0	96	24	3
STR	14	96	7
SI_	14	96	7	96	24	4
STR	14	144	0
SI_	14	144	0	96	24	3
STR	14	192	7
SI_	14	192	7	96	24	3
STR	14	240	0
SI_	14	240	0	96	24	4
STR	14	288	7
SI_	14	288	7	96	24	2
STR	14	336	0
SI_	14	336	0	96	24	5
STR	15	0	7
SCL	15	0	7	96	24	4
STR	15	48	0
SCR	15	48	0	96	24	3
TAP	15	96	7
TAP	15	168	6
TAP	15	192	5
TAP	15	240	2
TAP	15	240	5
TAP	15	264	1
TAP	15	264	5
TAP	15	288	2
TAP	15	288	5
TAP	15	312	1
TAP	15	312	5
TAP	15	336	2
TAP	15	336	5
TAP	15	360	1
TAP	15	360	5
TAP	16	0	2
TAP	16	0	6
TAP	16	24	5
TAP	16	48	3
TAP	16	72	7
TAP	16	96	1
TAP	16	96	6
TAP	16	120	0
TAP	16	144	4
TAP	16	168	2
TAP	16	192	0
TAP	16	192	7
TAP	16	216	1
TAP	16	240	4
TAP	16	264	2
TAP	16	288	0
TAP	16	288	3
TAP	16	312	7
TAP	16	336	3
TAP	16	360	5
TAP	17	0	0
TAP	17	0	7
TAP	17	24	1
TAP	17	24	6
TAP	17	48	2
TAP	17	48	5
TAP	17	72	3
TAP	17	72	4
TAP	17	96	3
TAP	17	96	4
TAP	17	120	2
TAP	17	120	5
TAP	17	144	1
TAP	17	144	6
TAP	17	168	0
TAP	17	168	7
STR	17	192	0
SCR	17	192	0	96	24	3
TAP	17	192	7
TAP	17	288	7
TAP	17	294	6
TAP	17	300	5
BRK	17	306	4
BRK	18	288	1
BRK	18	288	6
HLD	19	0	6	48
TAP	19	24	0
TAP	19	48	2
TAP	19	72	7
HLD	19	96	5	48
TAP	19	120	1
TAP	19	144	2
TAP	19	168	3
HLD	19	192	3	144
TAP	19	192	7
TAP	19	216	7
TAP	19	240	6
TAP	19	264	6
TAP	19	288	7
TAP	19	312	7
TAP	19	336	6
TAP	19	360	6
HLD	20	0	1	48
TAP	20	24	7
TAP	20	48	5
TAP	20	72	0
HLD	20	96	2	48
TAP	20	120	6
TAP	20	144	5
TAP	20	168	4
TAP	20	192	0
HLD	20	192	4	144
TAP	20	216	0
TAP	20	240	1
TAP	20	264	1
TAP	20	288	0
TAP	20	312	0
TAP	20	336	1
TAP	20	360	1
HLD	21	0	3	48
TAP	21	24	6
TAP	21	48	5
TAP	21	72	2
HLD	21	96	4	48
TAP	21	120	1
TAP	21	144	2
TAP	21	168	5
HLD	21	192	2	144
TAP	21	192	4
TAP	21	216	4
TAP	21	240	3
TAP	21	264	3
TAP	21	288	4
TAP	21	312	4
TAP	21	336	3
TAP	21	360	3
TAP	22	0	0
TAP	22	0	4
TAP	22	24	0
TAP	22	24	4
TAP	22	48	1
TAP	22	48	5
TAP	22	72	1
TAP	22	72	5
TAP	22	96	2
TAP	22	96	6
TAP	22	120	2
TAP	22	120	6
TAP	22	144	3
TAP	22	144	7
TAP	22	168	3
TAP	22	168	7
STR	22	192	0
SCR	22	192	0	96	24	3
TAP	22	192	4
TAP	22	288	7
TAP	22	294	6
TAP	22	300	5
BRK	22	306	4
HLD	23	0	1	48
TAP	23	24	5
HLD	23	48	5	48
TAP	23	72	0
HLD	23	96	0	48
TAP	23	120	7
HLD	23	144	7	24
TAP	23	168	0
HLD	23	192	2	144
TAP	23	192	5
TAP	23	216	6
TAP	23	240	5
TAP	23	264	6
TAP	23	288	5
TAP	23	312	6
TAP	23	336	5
TAP	23	360	6
HLD	24	0	6	48
TAP	24	24	2
HLD	24	48	2	48
TAP	24	72	7
HLD	24	96	7	48
TAP	24	120	0
HLD	24	144	0	24
TAP	24	168	5
TAP	24	192	2
HLD	24	192	5	144
TAP	24	216	1
TAP	24	240	2
TAP	24	264	1
TAP	24	288	2
TAP	24	312	1
TAP	24	336	2
TAP	24	360	1
HLD	25	0	2	48
TAP	25	24	1
HLD	25	48	1	48
TAP	25	72	0
HLD	25	96	0	48
TAP	25	120	7
TAP	25	144	7
TAP	25	168	7
TAP	25	192	6
HLD	25	192	7	168
TAP	25	216	5
TAP	25	240	6
TAP	25	264	5
TAP	25	288	6
TAP	25	312	5
TAP	25	336	6
TAP	25	360	5
TAP	26	0	6
TAP	26	0	7
TAP	26	24	5
TAP	26	24	6
TAP	26	48	4
TAP	26	48	5
TAP	26	72	3
TAP	26	72	4
TAP	26	96	2
TAP	26	96	3
TAP	26	120	1
TAP	26	120	2
TAP	26	144	0
TAP	26	144	1
TAP	26	168	0
TAP	26	168	7
TAP	26	192	0
STR	26	192	7
SCL	26	192	7	96	24	4
TAP	26	288	0
TAP	26	294	1
TAP	26	300	2
BRK	26	306	3
TAP	27	0	2
BRK	27	0	3
TAP	27	24	4
TAP	27	48	3
TAP	27	72	3
BRK	27	72	4
TAP	27	96	5
TAP	27	120	4
TAP	27	144	4
BRK	27	144	5
TAP	27	168	6
TAP	27	192	5
HLD	27	216	1	72
TAP	27	288	5
HLD	27	312	1	72
TAP	28	0	7
TAP	28	32	7
TAP	28	48	6
TAP	28	80	6
TAP	28	96	0
TAP	28	128	0
TAP	28	144	6
TAP	28	160	7
TAP	28	176	6
TAP	28	192	1
TAP	28	224	1
TAP	28	240	0
TAP	28	272	0
TAP	28	288	2
TAP	28	320	2
TAP	28	336	7
TAP	28	352	0
TAP	28	368	7
TAP	29	0	1
TAP	29	32	1
TAP	29	48	0
TAP	29	80	0
TAP	29	96	7
TAP	29	128	7
TAP	29	144	6
TAP	29	176	6
TAP	29	192	5
TAP	29	208	6
TAP	29	224	5
TAP	29	240	7
TAP	29	256	6
TAP	29	272	7
TAP	29	288	7
TAP	29	304	0
TAP	29	320	7
TAP	29	336	1
TAP	29	352	0
TAP	29	368	1
TAP	30	0	6
TAP	30	32	6
TAP	30	48	5
TAP	30	80	5
TAP	30	96	4
TAP	30	128	4
TAP	30	144	3
TAP	30	160	4
TAP	30	176	3
TAP	30	192	4
TAP	30	224	4
TAP	30	240	5
TAP	30	272	5
TAP	30	288	6
TAP	30	320	6
TAP	30	336	7
TAP	30	352	6
TAP	30	368	7
TAP	31	0	0
TAP	31	32	1
TAP	31	48	2
TAP	31	80	3
TAP	31	96	4
TAP	31	128	5
TAP	31	144	6
TAP	31	176	7
STR	31	192	0
SCR	31	192	0	96	24	3
TAP	31	288	7
TAP	31	294	6
TAP	31	300	5
BRK	31	306	4
TAP	32	0	0
TAP	32	32	0
TAP	32	48	6
TAP	32	80	6
TAP	32	96	2
TAP	32	128	2
TAP	32	144	7
TAP	32	160	2
TAP	32	176	7
TAP	32	192	1
TAP	32	224	1
TAP	32	240	4
TAP	32	272	4
TAP	32	288	3
TAP	32	320	3
TAP	32	336	7
TAP	32	352	0
TAP	32	368	7
TAP	33	0	1
TAP	33	32	1
TAP	33	48	6
TAP	33	80	6
TAP	33	96	2
TAP	33	128	2
TAP	33	144	5
TAP	33	176	5
TAP	33	192	3
TAP	33	208	4
TAP	33	224	3
TAP	33	240	5
TAP	33	256	2
TAP	33	272	5
TAP	33	288	1
TAP	33	304	6
TAP	33	320	1
TAP	33	336	7
TAP	33	352	0
TAP	33	368	7
TAP	34	0	2
TAP	34	32	2
TAP	34	48	3
TAP	34	80	3
TAP	34	96	0
TAP	34	128	0
TAP	34	144	5
TAP	34	160	0
TAP	34	176	5
TAP	34	192	7
TAP	34	224	7
TAP	34	240	4
TAP	34	272	4
TAP	34	288	5
TAP	34	320	5
TAP	34	336	2
TAP	34	352	3
TAP	34	368	2
TAP	35	0	7
TAP	35	16	0
TAP	35	32	7
TAP	35	48	1
TAP	35	64	6
TAP	35	80	1
TAP	35	96	5
TAP	35	112	2
TAP	35	128	5
TAP	35	144	3
TAP	35	160	4
TAP	35	176	3
TAP	35	192	4
TAP	35	208	3
TAP	35	224	4
TAP	35	240	2
TAP	35	256	5
TAP	35	272	2
TAP	35	288	6
TAP	35	304	1
TAP	35	320	6
TAP	35	336	0
TAP	35	352	7
TAP	35	368	0
TAP	36	0	5
TAP	36	16	6
TAP	36	32	5
TAP	36	48	7
TAP	36	64	6
TAP	36	80	7
TAP	36	96	0
TAP	36	112	1
TAP	36	128	0
TAP	36	144	2
TAP	36	160	1
TAP	36	176	2
TAP	36	192	4
TAP	36	208	3
TAP	36	224	4
TAP	36	240	6
TAP	36	256	5
TAP	36	272	6
STR	36	288	7
SI_	36	288	7	96	24	4
TAP	36	304	0
TAP	36	320	1
STR	36	336	0
SI_	36	336	0	96	24	3
TAP	36	352	7
TAP	36	368	6
STR	37	0	7
SI_	37	0	7	96	24	3
STR	37	48	0
SI_	37	48	0	96	24	4
STR	37	96	7
SI_	37	96	7	96	24	2
STR	37	144	0
SI_	37	144	0	96	24	5
STR	37	192	7
SI_	37	192	7	96	24	3
STR	37	240	0
SI_	37	240	0	96	24	4
STR	37	288	7
SI_	37	288	7	96	24	4
TAP	38	24	3
TAP	38	48	2
STR	38	96	7
SCL	38	96	7	96	24	4
STR	38	120	0
SCR	38	120	0	96	24	3
STR	38	144	4
SI_	38	144	4	96	24	7
STR	38	168	3
SI_	38	168	3	96	24	0
TAP	38	336	0
TAP	38	336	7
TAP	38	342	1
TAP	38	342	6
TAP	38	348	2
TAP	38	348	5
BRK	38	354	3
BRK	38	354	4

T_REC_TAP	527
T_REC_BRK	20
T_REC_XTP	0
T_REC_HLD	27
T_REC_XHO	0
T_REC_STR	37
T_REC_BST	0
T_REC_XST	0
T_REC_TTP	0
T_REC_THO	0
T_REC_SLD	37
T_REC_ALL	648
T_NUM_TAP	564
T_NUM_BRK	20
T_NUM_HLD	27
T_NUM_SLD	37
T_NUM_ALL	648
T_JUDGE_TAP	584
T_JUDGE_HLD	87
T_JUDGE_SLD	37
T_JUDGE_ALL	708
TTM_EACHPAIRS	66
TTM_SCR_TAP	282000
TTM_SCR_BRK	52000
TTM_SCR_HLD	27000
TTM_SCR_SLD	55500
TTM_SCR_ALL	416500
TTM_SCR_S	402100
TTM_SCR_SS	414500
TTM_RAT_ACV	10048

