VERSION	0.00.00	1.03.00
FES_MODE	0
BPM_DEF	100.000	100.000	100.000	100.000
MET_DEF	4	4
RESOLUTION	384
CLK_DEF	384
COMPATIBLE_CODE	MA2

BPM	0	0	100.000
MET	0	0	4	4

TAP	1	0	0
TAP	1	0	7
TAP	1	72	0
TAP	1	72	7
TAP	1	144	0
TAP	1	144	7
TAP	1	240	6
TAP	1	264	7
BRK	1	288	0
TAP	2	0	2
TAP	2	48	0
TAP	2	96	6
TAP	2	144	0
HLD	2	192	2	144
TAP	2	240	4
TAP	2	288	6
TAP	2	336	4
TAP	3	0	5
TAP	3	48	7
TAP	3	96	1
TAP	3	144	7
HLD	3	192	5	144
TAP	3	240	3
TAP	3	288	1
TAP	3	336	3
TAP	4	0	0
TAP	4	48	6
TAP	4	96	2
TAP	4	144	6
HLD	4	192	4	144
TAP	4	240	2
TAP	4	288	6
TAP	4	336	2
TAP	5	0	7
TAP	5	48	1
TAP	5	96	5
TAP	5	144	1
HLD	5	192	3	144
TAP	5	240	5
TAP	5	288	1
TAP	5	336	5
TAP	6	0	0
TAP	6	0	7
TAP	6	48	6
TAP	6	96	6
TAP	6	96	7
TAP	6	144	1
TAP	6	192	0
TAP	6	192	7
TAP	6	240	6
TAP	6	288	7
TAP	6	336	6
TAP	7	0	0
TAP	7	0	7
TAP	7	48	1
TAP	7	96	0
TAP	7	96	1
TAP	7	144	6
TAP	7	192	0
TAP	7	192	7
TAP	7	240	1
TAP	7	288	0
TAP	7	336	1
TAP	8	0	0
TAP	8	0	7
TAP	8	48	6
TAP	8	96	7
TAP	8	144	0
TAP	8	192	1
TAP	8	240	1
TAP	8	288	1
TAP	8	336	1
TAP	9	0	0
TAP	9	0	1
TAP	9	48	1
TAP	9	48	2
TAP	9	96	2
TAP	9	96	3
TAP	9	144	3
TAP	9	144	4
TAP	9	192	4
STR	9	192	5
SI_	9	192	5	96	48	0
TAP	10	0	1
TAP	10	0	7
TAP	10	48	0
TAP	10	48	6
TAP	10	96	1
TAP	10	96	7
TAP	10	192	1
TAP	10	192	7
TAP	10	240	0
TAP	10	240	6
TAP	10	288	1
TAP	10	288	7
TAP	11	0	1
TAP	11	0	7
TAP	11	48	0
TAP	11	48	6
TAP	11	96	5
TAP	11	96	7
TAP	11	168	0
TAP	11	168	6
BRK	11	192	1
BRK	11	192	7
TAP	12	0	2
TAP	12	48	2
TAP	12	96	3
TAP	12	144	3
TAP	12	192	4
TAP	12	240	4
TAP	12	288	5
TAP	12	336	5
TAP	13	0	6
TAP	13	48	5
TAP	13	96	4
TAP	13	144	3
STR	13	192	2
SI_	13	192	2	96	48	7
TAP	14	0	1
TAP	14	0	7
TAP	14	48	0
TAP	14	48	6
TAP	14	96	1
TAP	14	96	7
TAP	14	192	1
TAP	14	192	7
TAP	14	240	0
TAP	14	240	6
TAP	14	288	1
TAP	14	288	7
TAP	15	0	1
TAP	15	0	7
TAP	15	48	0
TAP	15	48	6
TAP	15	96	5
TAP	15	96	7
TAP	15	168	0
TAP	15	168	6
BRK	15	192	1
BRK	15	192	7
TAP	16	0	5
TAP	16	48	5
TAP	16	96	4
TAP	16	144	4
TAP	16	192	3
TAP	16	240	3
TAP	16	288	2
TAP	16	336	2
TAP	17	0	0
TAP	17	0	7
TAP	17	48	0
TAP	17	48	7
TAP	17	96	1
TAP	17	96	6
TAP	17	144	2
TAP	17	144	5
STR	17	192	3
SI_	17	192	3	96	48	0
STR	17	192	4
SI_	17	192	4	96	48	7
BRK	18	288	6
HLD	19	0	4	96
TAP	19	48	3
HLD	19	96	5	96
TAP	19	144	3
HLD	19	192	2	192
TAP	19	240	3
TAP	19	288	3
HLD	20	0	3	96
TAP	20	48	4
HLD	20	96	2	96
TAP	20	144	4
HLD	20	192	5	192
TAP	20	240	4
TAP	20	288	4
HLD	21	0	1	96
TAP	21	48	2
HLD	21	96	6	96
TAP	21	144	5
HLD	21	192	1	192
TAP	21	240	2
TAP	21	288	5
HLD	22	0	7	48
HLD	22	48	0	48
HLD	22	96	1	48
HLD	22	144	7	48
HLD	22	192	6	96
BRK	22	288	1
TAP	23	0	4
TAP	23	48	0
TAP	23	48	7
TAP	23	96	4
TAP	23	144	0
TAP	23	144	1
TAP	23	192	4
TAP	23	240	0
TAP	23	240	7
TAP	23	288	0
TAP	23	288	1
TAP	24	0	3
TAP	24	48	0
TAP	24	48	7
TAP	24	96	3
TAP	24	144	6
TAP	24	144	7
TAP	24	192	3
TAP	24	240	0
TAP	24	240	7
TAP	24	288	6
TAP	24	288	7
TAP	25	0	4
TAP	25	48	0
TAP	25	48	1
TAP	25	96	3
TAP	25	144	6
TAP	25	144	7
TAP	25	192	0
TAP	25	240	0
TAP	25	288	0
TAP	25	336	0
TAP	26	0	7
TAP	26	48	6
TAP	26	96	5
TAP	26	144	4
STR	26	192	3
SCL	26	192	3	96	48	0
TAP	27	0	6
TAP	27	0	7
TAP	27	48	1
TAP	27	72	0
TAP	27	72	1
TAP	27	120	6
TAP	27	144	6
TAP	27	144	7
BRK	27	192	0
BRK	27	288	0
TAP	28	0	1
TAP	28	0	7
TAP	28	48	0
TAP	28	48	6
TAP	28	96	1
TAP	28	96	7
TAP	28	192	1
TAP	28	192	7
TAP	28	240	0
TAP	28	240	6
TAP	28	272	1
TAP	28	272	7
TAP	29	0	1
TAP	29	0	7
TAP	29	48	0
TAP	29	48	6
TAP	29	96	5
TAP	29	96	7
TAP	29	176	0
TAP	29	176	6
BRK	29	192	1
BRK	29	192	7
TAP	30	0	2
TAP	30	48	2
TAP	30	96	3
TAP	30	144	3
TAP	30	176	3
TAP	30	192	4
TAP	30	240	4
TAP	30	272	4
TAP	30	288	5
TAP	30	336	5
TAP	31	0	6
TAP	31	48	5
TAP	31	96	4
TAP	31	144	3
STR	31	192	2
SI_	31	192	2	96	48	7
TAP	32	0	1
TAP	32	0	7
TAP	32	48	0
TAP	32	48	6
TAP	32	96	1
TAP	32	96	7
TAP	32	192	1
TAP	32	192	7
TAP	32	240	0
TAP	32	240	6
TAP	32	272	1
TAP	32	272	7
TAP	33	0	1
TAP	33	0	7
TAP	33	48	0
TAP	33	48	6
TAP	33	96	5
TAP	33	96	7
TAP	33	176	0
TAP	33	176	6
BRK	33	192	1
BRK	33	192	7
TAP	34	0	5
TAP	34	48	5
TAP	34	96	4
TAP	34	144	4
TAP	34	176	4
TAP	34	192	3
TAP	34	240	3
TAP	34	272	3
TAP	34	288	2
TAP	34	336	2
STR	35	0	6
SCL	35	0	6	96	48	3
STR	35	0	7
SCR	35	0	7	96	48	2
STR	35	192	0
SCL	35	192	0	96	48	5
STR	35	192	1
SCR	35	192	1	96	48	4
STR	36	0	6
SCL	36	0	6	96	48	3
STR	36	0	7
SCR	36	0	7	96	48	2
STR	36	192	0
SCL	36	192	0	96	48	5
STR	36	192	1
SCR	36	192	1	96	48	4
STR	37	0	7
SI_	37	0	7	96	48	2
STR	37	96	0
SI_	37	96	0	96	48	5
STR	37	192	6
SI_	37	192	6	96	48	3
STR	37	288	1
SI_	37	288	1	96	48	4
BRK	38	336	0

T_REC_TAP	264
T_REC_BRK	14
T_REC_XTP	0
T_REC_HLD	18
T_REC_XHO	0
T_REC_STR	18
T_REC_BST	0
T_REC_XST	0
T_REC_TTP	0
T_REC_THO	0
T_REC_SLD	18
T_REC_ALL	332
T_NUM_TAP	282
T_NUM_BRK	14
T_NUM_HLD	18
T_NUM_SLD	18
T_NUM_ALL	332
T_JUDGE_TAP	296
T_JUDGE_HLD	84
T_JUDGE_SLD	18
T_JUDGE_ALL	398
TTM_EACHPAIRS	81
TTM_SCR_TAP	141000
TTM_SCR_BRK	36400
TTM_SCR_HLD	18000
TTM_SCR_SLD	27000
TTM_SCR_ALL	222400
TTM_SCR_S	214400
TTM_SCR_SS	221000
TTM_RAT_ACV	10063

