VERSION	0.00.00	1.03.00
FES_MODE	0
BPM_DEF	100.000	100.000	100.000	100.000
MET_DEF	4	4
RESOLUTION	384
CLK_DEF	384
COMPATIBLE_CODE	MA2

BPM	0	0	100.000
MET	0	0	4	4

TAP	2	0	1
TAP	2	48	0
TAP	2	96	1
TAP	2	144	0
TAP	2	240	7
TAP	2	288	6
TAP	2	288	7
TAP	2	336	6
TAP	3	0	5
TAP	3	48	4
TAP	3	96	5
TAP	3	144	4
TAP	3	240	3
TAP	3	288	2
TAP	3	288	3
TAP	3	336	2
TAP	4	0	1
TAP	4	48	0
TAP	4	96	7
TAP	4	144	6
TAP	4	240	6
TAP	4	288	7
TAP	4	336	6
TAP	5	0	1
TAP	5	0	5
TAP	5	96	1
TAP	5	96	6
TAP	5	240	2
TAP	5	240	7
TAP	5	288	1
TAP	5	288	6
TAP	5	336	0
TAP	5	336	5
TAP	6	48	1
TAP	6	96	0
TAP	6	144	1
TAP	6	240	0
TAP	6	288	0
TAP	6	288	7
TAP	6	336	7
TAP	7	48	5
TAP	7	96	4
TAP	7	144	5
TAP	7	240	4
TAP	7	288	3
TAP	7	288	4
TAP	7	336	3
TAP	8	0	2
TAP	8	48	1
TAP	8	96	0
TAP	8	144	7
TAP	8	192	6
TAP	8	240	5
TAP	8	288	4
TAP	8	336	3
TAP	9	0	4
TAP	9	96	5
STR	9	192	2
SCL	9	192	2	96	48	7
TAP	10	48	0
TAP	10	96	5
TAP	10	144	0
TAP	10	240	7
TAP	10	288	2
TAP	10	336	7
TAP	11	48	1
TAP	11	144	0
TAP	11	240	6
TAP	11	240	7
TAP	11	288	0
TAP	11	288	7
TAP	11	336	0
TAP	11	336	1
TAP	12	48	0
TAP	12	96	5
TAP	12	144	0
TAP	12	240	7
TAP	12	288	2
TAP	12	336	7
TAP	13	48	6
TAP	13	96	7
TAP	13	144	6
HLD	13	192	7	192
HLD	13	288	0	96
HLD	14	48	6	96
TAP	14	144	5
HLD	14	240	1	96
TAP	14	336	2
HLD	15	48	7	96
TAP	15	144	5
TAP	15	240	0
TAP	15	288	1
TAP	15	336	2
HLD	16	0	1	148
HLD	16	192	0	144
HLD	17	0	7	96
HLD	17	96	6	96
STR	17	192	5
SI_	17	192	5	96	48	1
TAP	18	192	5
TAP	18	192	6
BRK	18	288	0
TAP	19	48	7
TAP	19	144	6
TAP	19	240	5
TAP	19	336	4
TAP	20	48	3
TAP	20	144	2
TAP	20	240	1
TAP	20	336	0
TAP	21	48	7
TAP	21	144	0
TAP	21	240	1
TAP	21	336	2
HLD	22	0	1	96
HLD	22	96	0	96
HLD	22	192	7	96
TAP	22	288	6
TAP	23	48	0
HLD	23	144	1	96
TAP	23	240	5
TAP	23	288	5
TAP	24	48	7
HLD	24	144	6	96
TAP	24	240	2
TAP	24	288	2
HLD	25	48	0	48
TAP	25	144	5
HLD	25	240	7	48
TAP	25	336	2
TAP	26	96	0
TAP	26	240	7
TAP	26	288	6
TAP	26	336	5
TAP	27	0	5
BRK	27	0	6
TAP	27	72	6
BRK	27	72	7
BRK	27	144	0
TAP	27	144	7
TAP	27	240	2
TAP	27	288	3
TAP	27	336	2
HLD	28	0	1	288
TAP	28	96	2
TAP	28	192	7
TAP	28	240	7
TAP	28	288	7
HLD	29	0	6	96
TAP	29	96	5
TAP	29	192	0
TAP	29	192	5
TAP	29	288	2
TAP	29	288	7
HLD	30	0	5	96
TAP	30	96	6
HLD	30	192	1	96
TAP	30	240	0
TAP	30	288	7
HLD	31	0	7	192
TAP	31	96	5
STR	31	192	6
SI_	31	192	6	96	48	1
TAP	32	96	0
HLD	32	192	5	96
TAP	32	240	6
TAP	32	288	7
HLD	33	0	2	96
TAP	33	96	6
HLD	33	192	6	96
TAP	33	240	7
TAP	33	288	7
TAP	34	96	0
TAP	34	288	7
HLD	35	0	6	384
TAP	35	288	5
HLD	36	0	1	288
TAP	36	96	7
TAP	36	192	6
TAP	36	288	5
STR	37	0	5
SI_	37	0	5	96	96	2
STR	37	0	6
SI_	37	0	6	96	96	1
BRK	38	336	0

T_REC_TAP	144
T_REC_BRK	5
T_REC_XTP	0
T_REC_HLD	26
T_REC_XHO	0
T_REC_STR	5
T_REC_BST	0
T_REC_XST	0
T_REC_TTP	0
T_REC_THO	0
T_REC_SLD	5
T_REC_ALL	185
T_NUM_TAP	149
T_NUM_BRK	5
T_NUM_HLD	26
T_NUM_SLD	5
T_NUM_ALL	185
T_JUDGE_TAP	154
T_JUDGE_HLD	141
T_JUDGE_SLD	5
T_JUDGE_ALL	300
TTM_EACHPAIRS	19
TTM_SCR_TAP	74500
TTM_SCR_BRK	13000
TTM_SCR_HLD	26000
TTM_SCR_SLD	7500
TTM_SCR_ALL	121000
TTM_SCR_S	116900
TTM_SCR_SS	120500
TTM_RAT_ACV	10041

