VERSION	0.00.00	1.03.00
FES_MODE	0
BPM_DEF	100.000	100.000	100.000	100.000
MET_DEF	4	4
RESOLUTION	384
CLK_DEF	387
COMPATIBLE_CODE	MA2

BPM	0	0	100.000
MET	0	0	4	4

TAP	2	0	6
TAP	2	96	6
HLD	2	192	7	96
TAP	3	0	7
TAP	3	96	7
HLD	3	192	0	96
TAP	4	0	0
TAP	4	96	0
HLD	4	192	1	96
TAP	5	0	1
TAP	5	48	1
TAP	5	96	1
TAP	5	144	1
HLD	5	192	1	96
TAP	6	0	2
TAP	6	96	2
HLD	6	192	3	96
TAP	7	0	3
TAP	7	96	3
HLD	7	192	4	96
TAP	8	0	4
TAP	8	96	4
HLD	8	192	5	96
TAP	9	0	6
TAP	9	48	6
TAP	9	96	6
TAP	9	144	6
HLD	9	192	6	96
TAP	10	0	1
TAP	10	48	1
TAP	10	96	0
TAP	10	96	7
TAP	10	192	1
TAP	10	240	1
TAP	10	288	0
TAP	10	288	7
TAP	11	0	7
TAP	11	96	7
TAP	11	192	7
TAP	12	0	7
TAP	12	48	7
TAP	12	96	1
TAP	12	96	6
TAP	12	192	7
TAP	12	240	7
TAP	12	288	1
TAP	12	288	6
STR	13	0	5
SI_	13	0	5	96	96	2
TAP	14	0	1
TAP	14	48	1
TAP	14	96	0
TAP	14	96	7
TAP	14	192	1
TAP	14	240	1
TAP	14	288	0
TAP	14	288	7
TAP	15	0	7
TAP	15	96	7
TAP	15	192	7
TAP	16	0	7
TAP	16	48	7
TAP	16	96	1
TAP	16	96	6
TAP	16	192	7
TAP	16	240	7
TAP	16	288	1
TAP	16	288	6
STR	17	0	2
SI_	17	0	2	96	96	5
TAP	17	288	6
BRK	18	288	0
TAP	19	0	1
TAP	19	96	1
HLD	19	192	7	96
TAP	20	0	0
TAP	20	96	0
HLD	20	192	6	96
TAP	21	0	7
TAP	21	96	7
HLD	21	192	5	96
TAP	22	0	4
TAP	22	48	4
TAP	22	96	4
TAP	22	144	4
HLD	22	192	4	96
TAP	23	0	2
TAP	23	96	2
TAP	23	192	7
TAP	23	240	0
TAP	23	288	7
TAP	24	0	5
TAP	24	96	5
TAP	24	192	0
TAP	24	240	7
TAP	24	288	0
TAP	25	0	2
TAP	25	96	2
TAP	25	192	7
TAP	25	240	0
TAP	25	288	7
TAP	26	0	0
TAP	26	48	0
TAP	26	96	0
TAP	26	144	0
HLD	26	192	0	96
BRK	27	288	6
TAP	28	0	5
TAP	28	48	4
TAP	28	96	3
TAP	28	192	2
TAP	28	240	3
TAP	28	288	4
TAP	29	0	5
TAP	29	48	4
TAP	29	96	3
TAP	29	168	2
TAP	29	192	2
TAP	30	0	1
TAP	30	96	0
TAP	30	192	7
TAP	30	288	6
TAP	31	0	5
TAP	31	48	5
TAP	31	96	6
TAP	31	144	6
TAP	31	192	7
TAP	31	288	0
TAP	31	288	7
TAP	32	0	1
TAP	32	48	0
TAP	32	96	7
TAP	32	192	6
TAP	32	240	7
TAP	32	288	0
TAP	33	0	1
TAP	33	48	0
TAP	33	96	7
TAP	33	168	6
TAP	33	192	6
TAP	34	0	5
TAP	34	96	4
TAP	34	192	3
TAP	34	288	2
TAP	35	96	0
TAP	35	96	1
TAP	35	288	0
TAP	35	288	7
TAP	36	96	6
TAP	36	96	7
TAP	36	288	1
TAP	36	288	6
TAP	37	0	5
TAP	37	96	4
TAP	37	192	3
TAP	37	288	2
BRK	38	336	0

T_REC_TAP	137
T_REC_BRK	3
T_REC_XTP	0
T_REC_HLD	13
T_REC_XHO	0
T_REC_STR	2
T_REC_BST	0
T_REC_XST	0
T_REC_TTP	0
T_REC_THO	0
T_REC_SLD	2
T_REC_ALL	157
T_NUM_TAP	139
T_NUM_BRK	3
T_NUM_HLD	13
T_NUM_SLD	2
T_NUM_ALL	157
T_JUDGE_TAP	142
T_JUDGE_HLD	52
T_JUDGE_SLD	2
T_JUDGE_ALL	196
TTM_EACHPAIRS	13
TTM_SCR_TAP	69500
TTM_SCR_BRK	7800
TTM_SCR_HLD	13000
TTM_SCR_SLD	3000
TTM_SCR_ALL	93300
TTM_SCR_S	90250
TTM_SCR_SS	93000
TTM_RAT_ACV	10032

