VERSION	0.00.00	1.03.00
FES_MODE	0
BPM_DEF	161.000	161.000	161.000	161.000
MET_DEF	4	4
RESOLUTION	384
CLK_DEF	384
COMPATIBLE_CODE	MA2

BPM	0	0	161.000
MET	0	0	4	4

TAP	3	0	6
TAP	3	48	7
TAP	3	192	3
TAP	3	240	2
TAP	4	0	4
TAP	4	96	1
TAP	4	96	3
TAP	4	192	0
TAP	4	192	2
HLD	4	288	1	96
TAP	4	288	7
TAP	5	0	6
TAP	5	96	1
TAP	5	96	7
TAP	5	192	0
TAP	5	192	2
TAP	5	288	3
TAP	5	336	4
TAP	6	96	4
TAP	6	96	6
TAP	6	192	5
TAP	6	192	7
TAP	6	288	0
HLD	6	288	6	96
TAP	7	0	1
TAP	7	96	0
TAP	7	96	6
TAP	7	192	5
TAP	7	192	7
TAP	7	288	6
TAP	8	0	4
TAP	8	96	1
TAP	8	96	3
TAP	8	192	0
TAP	8	192	2
HLD	8	288	1	384
TAP	8	288	7
TAP	9	0	0
TAP	9	96	2
TAP	9	192	3
TAP	9	288	4
TAP	9	336	2
TAP	9	336	4
TAP	10	96	4
TAP	10	96	6
TAP	10	192	5
TAP	10	192	7
TAP	10	288	0
HLD	10	288	6	384
TAP	11	0	7
TAP	11	96	5
TAP	11	192	4
TAP	11	288	3
STR	12	0	7
SI_	12	0	7	96	48	4
STR	12	96	0
SI_	12	96	0	96	48	3
STR	12	192	6
SI_	12	192	6	96	48	3
STR	12	288	7
SI_	12	288	7	96	48	2
STR	13	0	0
SI_	13	0	0	96	48	5
STR	13	96	1
SI_	13	96	1	96	48	4
STR	13	192	6
SI_	13	192	6	96	48	1
STR	13	288	5
SI_	13	288	5	96	48	2
STR	14	0	6
SCR	14	0	6	96	48	1
STR	14	192	2
SCR	14	192	2	96	48	5
HLD	15	0	7	96
HLD	15	96	1	96
HLD	15	192	5	96
HLD	15	288	3	96
HLD	16	0	5	384
TAP	16	96	6
TAP	16	192	7
TAP	16	288	0
HLD	17	0	1	384
TAP	17	96	2
TAP	17	192	3
TAP	17	288	4
HLD	18	0	5	384
TAP	18	96	6
TAP	18	192	7
TAP	18	288	0
HLD	19	0	1	384
TAP	19	96	2
TAP	19	192	3
TAP	19	288	4
HLD	20	0	5	96
HLD	20	96	6	96
HLD	20	192	1	96
HLD	20	288	2	96
HLD	21	0	4	96
HLD	21	96	3	96
HLD	21	192	7	192
TAP	21	240	5
TAP	21	288	5
TAP	21	336	5
STR	22	96	3
SCR	22	96	3	96	96	6
STR	22	96	7
SCR	22	96	7	96	96	2
TAP	23	0	2
TAP	23	0	6
TAP	23	96	2
TAP	23	96	4
TAP	23	192	0
TAP	23	192	6
TAP	23	288	7
TAP	24	0	1
TAP	24	0	5
TAP	24	96	0
TAP	24	96	4
TAP	24	192	3
TAP	24	192	7
TAP	24	288	2
TAP	24	288	6
TAP	25	0	1
HLD	25	0	5	96
TAP	25	96	1
HLD	25	192	0	96
TAP	25	192	4
TAP	25	288	4
HLD	26	0	3	192
TAP	26	0	7
TAP	26	96	6
TAP	26	192	5
TAP	26	288	0
TAP	26	288	4
HLD	27	0	1	192
TAP	27	0	5
TAP	27	96	6
TAP	27	192	7
TAP	27	288	0
TAP	27	288	4
STR	28	0	6
SI_	28	0	6	96	96	2
TAP	28	96	7
TAP	28	192	5
TAP	28	288	2
TAP	28	288	6
TAP	29	0	0
TAP	29	96	3
STR	29	96	7
SI_	29	96	7	96	96	4
TAP	29	192	6
TAP	29	288	5
TAP	30	0	3
TAP	30	0	7
TAP	30	96	2
TAP	30	96	6
TAP	30	192	1
STR	30	192	5
SI_	30	192	5	96	96	1
TAP	30	288	0
TAP	31	0	0
TAP	31	48	7
TAP	31	240	4
TAP	31	288	6
HLD	31	336	0	240
TAP	31	336	4
TAP	32	240	4
TAP	32	288	6
HLD	32	336	1	241
TAP	32	336	5
TAP	33	240	3
TAP	33	288	1
HLD	33	336	2	240
TAP	33	336	3
TAP	34	240	5
TAP	34	288	3
HLD	34	336	1	240
TAP	34	336	7
TAP	35	240	2
TAP	35	288	4
TAP	35	336	0
HLD	35	336	6	240
TAP	36	240	4
TAP	36	288	2
HLD	36	336	0	240
TAP	36	336	6
TAP	37	240	3
TAP	37	288	5
TAP	37	336	1
HLD	37	336	7	240
TAP	38	96	0
TAP	38	192	1
TAP	38	288	2
TAP	38	336	3
TAP	39	96	2
TAP	39	96	6
TAP	39	192	3
TAP	39	192	5
TAP	39	288	0
TAP	39	288	4
TAP	40	96	1
TAP	40	96	5
TAP	40	192	3
TAP	40	192	5
TAP	40	240	2
TAP	40	240	4
TAP	40	336	2
TAP	40	336	6
BRK	41	96	3
BRK	41	96	7
TAP	41	192	2
TAP	41	240	1
TAP	41	288	0
TAP	41	336	7
HLD	42	0	7	240
TAP	42	96	3
TAP	42	144	3
TAP	42	240	2
TAP	42	336	5
TAP	42	336	7
TAP	43	48	4
TAP	43	48	6
TAP	43	144	1
TAP	43	144	3
TAP	43	240	0
TAP	43	240	2
TAP	43	288	1
TAP	43	336	1
HLD	44	0	3	240
TAP	44	96	7
TAP	44	144	7
TAP	44	240	6
TAP	44	336	5
TAP	44	336	7
TAP	45	48	0
TAP	45	48	2
TAP	45	144	4
TAP	45	144	6
TAP	45	240	1
TAP	45	240	3
TAP	46	0	3
HLD	46	0	7	240
TAP	46	96	2
TAP	46	144	2
TAP	46	240	6
TAP	46	336	1
TAP	46	336	7
TAP	47	48	0
TAP	47	48	6
TAP	47	144	3
TAP	47	144	5
TAP	47	240	2
TAP	47	240	4
TAP	47	288	1
TAP	47	288	3
TAP	47	336	1
HLD	48	0	6	144
TAP	48	96	7
TAP	48	144	7
TAP	48	240	0
TAP	48	240	5
TAP	48	336	1
TAP	48	336	6
TAP	49	48	0
STR	49	96	2
SI_	49	96	2	96	48	6
TAP	49	288	3
TAP	49	288	7
TAP	49	336	1
HLD	50	0	0	144
TAP	50	96	7
TAP	50	144	7
TAP	50	240	6
TAP	50	336	6
TAP	50	336	7
TAP	51	48	0
TAP	51	96	0
TAP	51	288	6
TAP	51	336	7
TAP	52	0	0
HLD	52	0	1	96
STR	52	96	2
SCR	52	96	2	96	96	5
HLD	52	288	4	96
HLD	53	0	3	96
STR	53	192	1
SCL	53	192	1	96	96	6
TAP	53	192	2
BRK	54	0	3
BRK	54	96	4
BRK	54	192	5
BRK	54	288	6
BRK	55	0	7
TAP	55	48	0
TAP	55	96	7
TAP	55	144	0
TAP	55	192	4
TAP	55	240	3
BRK	55	288	4
TAP	56	0	6
TAP	56	0	7
TAP	56	48	6
TAP	56	48	7
TAP	56	144	0
TAP	56	144	1
TAP	56	192	0
TAP	56	192	1
TAP	56	288	2
TAP	56	288	5
TAP	56	336	2
TAP	56	336	5
TAP	57	48	3
TAP	57	48	7
STR	57	144	2
SCR	57	144	2	96	48	5
STR	57	144	6
SCR	57	144	6	96	48	1
TAP	58	0	2
TAP	58	0	5
TAP	58	48	2
TAP	58	48	5
TAP	58	144	4
TAP	58	144	5
TAP	58	192	4
TAP	58	192	5
TAP	58	288	2
TAP	58	288	3
TAP	58	336	2
TAP	58	336	3
TAP	59	48	4
TAP	59	96	3
TAP	59	144	5
HLD	59	192	2	144
HLD	59	240	6	144
TAP	60	0	1
TAP	60	48	0
TAP	60	48	7
TAP	60	144	5
TAP	60	144	6
TAP	60	192	5
TAP	60	192	6
TAP	60	288	1
TAP	60	288	2
TAP	60	336	1
TAP	60	336	2
TAP	61	48	3
TAP	61	48	7
TAP	61	144	0
TAP	61	144	4
TAP	61	240	7
TAP	61	288	0
TAP	62	0	3
TAP	62	0	4
TAP	62	48	3
TAP	62	48	4
TAP	62	144	3
TAP	62	144	6
TAP	62	192	3
TAP	62	192	6
TAP	62	288	1
TAP	62	288	4
TAP	62	336	1
TAP	62	336	4
TAP	63	48	1
TAP	63	96	0
TAP	63	144	7
TAP	63	192	0
TAP	63	192	6
TAP	63	240	1
TAP	63	240	7
TAP	64	0	0
TAP	64	0	6
TAP	64	48	0
TAP	64	48	1
TAP	64	144	0
TAP	64	144	2
TAP	64	192	1
TAP	64	192	2
TAP	64	288	2
TAP	64	288	4
TAP	64	336	3
TAP	64	336	4
TAP	65	48	1
TAP	65	48	5
TAP	65	144	2
TAP	65	144	6
TAP	65	240	3
TAP	65	240	7
TAP	65	288	0
TAP	66	0	2
TAP	66	0	4
TAP	66	48	3
TAP	66	48	4
TAP	66	144	4
TAP	66	144	6
TAP	66	192	5
TAP	66	192	6
TAP	66	288	0
TAP	66	288	6
TAP	66	336	6
TAP	66	336	7
TAP	67	48	1
TAP	67	96	0
TAP	67	96	1
TAP	67	144	6
TAP	67	192	6
TAP	67	192	7
TAP	67	240	0
TAP	67	240	6
TAP	68	0	0
TAP	68	0	5
TAP	68	48	0
TAP	68	48	6
TAP	68	144	2
TAP	68	144	7
TAP	68	192	1
TAP	68	192	7
TAP	68	288	1
TAP	68	288	6
TAP	68	336	2
TAP	68	336	7
TAP	69	48	3
TAP	69	96	5
TAP	69	144	7
TAP	69	192	1
TAP	69	240	2
TAP	69	288	1
TAP	70	0	0
TAP	70	0	4
TAP	70	48	0
TAP	70	48	5
TAP	70	144	3
TAP	70	144	7
TAP	70	192	2
TAP	70	192	7
TAP	70	288	2
TAP	70	288	6
TAP	70	336	2
TAP	70	336	7
HLD	71	0	0	96
HLD	71	96	1	96
HLD	71	192	2	96
HLD	71	288	3	96
HLD	72	0	4	288
TAP	72	96	3
TAP	72	192	2
TAP	72	288	1
HLD	73	0	0	288
TAP	73	96	1
TAP	73	192	2
TAP	73	288	3
HLD	73	336	4	336
TAP	74	96	5
TAP	74	192	6
HLD	74	288	7	384
TAP	75	96	0
TAP	75	288	1

T_REC_TAP	361
T_REC_BRK	8
T_REC_XTP	0
T_REC_HLD	48
T_REC_XHO	0
T_REC_STR	20
T_REC_BST	0
T_REC_XST	0
T_REC_TTP	0
T_REC_THO	0
T_REC_SLD	20
T_REC_ALL	457
T_NUM_TAP	381
T_NUM_BRK	8
T_NUM_HLD	48
T_NUM_SLD	20
T_NUM_ALL	457
T_JUDGE_TAP	389
T_JUDGE_HLD	192
T_JUDGE_SLD	20
T_JUDGE_ALL	601
TTM_EACHPAIRS	130
TTM_SCR_TAP	190500
TTM_SCR_BRK	20800
TTM_SCR_HLD	48000
TTM_SCR_SLD	30000
TTM_SCR_ALL	289300
TTM_SCR_S	279850
TTM_SCR_SS	288500
TTM_RAT_ACV	10027

