VERSION	0.00.00	1.03.00
FES_MODE	0
BPM_DEF	161.000	161.000	161.000	161.000
MET_DEF	4	4
RESOLUTION	384
CLK_DEF	384
COMPATIBLE_CODE	MA2

BPM	0	0	161.000
MET	0	0	4	4

TAP	3	0	5
TAP	3	0	6
TAP	3	48	1
TAP	3	48	6
TAP	3	192	1
TAP	3	192	2
TAP	3	240	1
TAP	3	240	6
TAP	4	0	0
TAP	4	0	7
TAP	4	96	1
TAP	4	96	2
TAP	4	192	1
TAP	4	192	7
TAP	4	288	0
TAP	4	288	2
TAP	5	0	0
TAP	5	0	1
TAP	5	96	2
TAP	5	96	7
TAP	5	192	0
TAP	5	192	3
TAP	5	288	1
TAP	5	288	6
TAP	6	0	0
TAP	6	0	7
TAP	6	96	5
TAP	6	96	6
TAP	6	192	0
TAP	6	192	6
TAP	6	288	5
TAP	6	288	7
TAP	7	0	6
TAP	7	0	7
TAP	7	96	0
TAP	7	96	5
TAP	7	192	0
TAP	7	192	3
TAP	7	288	2
TAP	7	288	5
TAP	8	0	0
TAP	8	0	1
TAP	8	96	2
TAP	8	96	6
TAP	8	192	3
TAP	8	192	4
TAP	8	288	2
TAP	8	288	6
TAP	9	0	1
TAP	9	0	3
TAP	9	96	1
TAP	9	96	7
TAP	9	192	3
TAP	9	192	5
TAP	9	288	1
TAP	9	288	7
TAP	10	0	6
TAP	10	0	7
TAP	10	96	1
TAP	10	96	5
TAP	10	192	3
TAP	10	192	4
TAP	10	288	1
TAP	10	288	5
TAP	11	0	4
TAP	11	0	6
TAP	11	96	0
TAP	11	96	6
TAP	11	192	2
TAP	11	192	4
TAP	11	288	0
TAP	11	288	6
STR	12	0	4
SI_	12	0	4	96	192	1
STR	13	0	3
SI_	13	0	3	96	192	6
STR	14	0	5
SI_	14	0	5	96	96	0
STR	14	192	2
SI_	14	192	2	96	96	7
HLD	15	0	0	288
TAP	16	0	0
HLD	16	0	7	192
TAP	16	96	6
TAP	16	192	0
TAP	16	288	2
HLD	16	336	0	144
HLD	17	96	7	192
TAP	17	192	6
TAP	17	288	0
HLD	18	0	0	192
TAP	18	0	7
TAP	18	96	1
TAP	18	192	7
TAP	18	288	5
HLD	18	336	7	144
HLD	19	96	0	192
TAP	19	192	1
TAP	19	288	7
HLD	20	0	6	96
HLD	20	96	7	96
HLD	20	192	0	96
TAP	20	288	1
HLD	21	0	1	96
HLD	21	96	0	96
HLD	21	192	7	96
TAP	21	288	6
HLD	22	0	0	96
TAP	22	0	1
TAP	22	96	1
TAP	22	192	6
HLD	22	192	7	96
TAP	22	288	6
TAP	23	0	2
HLD	23	0	3	96
TAP	23	96	2
HLD	23	192	4	96
TAP	23	192	5
TAP	23	288	5
TAP	24	0	0
HLD	24	0	7	288
TAP	24	96	6
TAP	24	192	0
TAP	24	288	6
HLD	24	336	0	336
TAP	25	96	1
TAP	25	192	2
TAP	25	288	3
HLD	26	0	4	672
TAP	26	96	3
TAP	26	192	2
TAP	26	288	1
TAP	27	0	0
TAP	27	96	7
TAP	27	192	6
TAP	27	288	5
HLD	28	0	0	144
HLD	28	144	1	144
HLD	28	288	2	144
HLD	29	48	5	144
HLD	29	192	6	96
HLD	29	288	7	96
TAP	30	0	0
TAP	30	192	7
TAP	31	0	1
TAP	31	0	6
BRK	31	48	3
BRK	31	48	4
TAP	31	240	5
TAP	31	288	6
STR	31	336	5
SI_	31	336	5	96	96	1
TAP	32	240	2
TAP	32	288	1
STR	32	336	2
SI_	32	336	2	96	96	6
TAP	33	240	5
TAP	33	288	6
STR	33	336	5
SI_	33	336	5	96	96	1
TAP	34	240	2
TAP	34	288	1
STR	34	336	2
SI_	34	336	2	96	96	6
TAP	35	240	5
TAP	35	288	6
STR	35	336	5
SI_	35	336	5	96	96	1
TAP	36	240	2
TAP	36	288	1
STR	36	336	2
SI_	36	336	2	96	96	6
TAP	37	240	5
TAP	37	288	4
TAP	37	336	3
HLD	38	0	2	96
TAP	38	96	3
HLD	38	192	5	96
TAP	38	288	4
HLD	38	336	1	144
TAP	40	0	0
TAP	40	0	7
HLD	40	96	0	192
TAP	40	96	7
HLD	40	240	1	144
HLD	40	336	6	96
BRK	41	48	2
BRK	41	96	5
STR	41	288	4
SI_	41	288	4	96	48	0
TAP	42	144	6
TAP	42	144	7
TAP	42	240	2
TAP	42	240	3
HLD	42	336	1	432
TAP	42	336	5
TAP	43	96	3
TAP	43	192	3
TAP	43	288	3
HLD	44	0	6	192
TAP	44	96	4
HLD	44	192	1	96
TAP	44	288	3
TAP	44	336	0
TAP	45	48	1
TAP	45	144	2
STR	45	240	3
SI_	45	240	3	96	96	7
TAP	46	144	0
TAP	46	144	1
TAP	46	240	4
TAP	46	240	5
TAP	46	336	2
HLD	46	336	6	432
TAP	47	96	4
TAP	47	192	4
TAP	47	288	4
HLD	48	0	1	192
TAP	48	96	3
HLD	48	192	6	192
TAP	48	288	4
HLD	49	0	1	384
TAP	49	96	3
TAP	49	192	3
TAP	49	288	3
HLD	50	0	6	192
TAP	50	96	4
HLD	50	192	0	192
TAP	50	288	2
HLD	51	0	7	384
TAP	51	96	5
TAP	51	192	5
STR	51	288	5
SI_	51	288	5	96	192	1
STR	52	288	2
SI_	52	288	2	96	192	6
HLD	54	0	0	288
TAP	56	0	6
HLD	56	0	7	48
HLD	56	48	0	144
TAP	56	144	1
HLD	56	192	7	144
TAP	56	288	6
HLD	56	336	0	336
TAP	57	48	1
TAP	57	144	6
TAP	57	240	1
HLD	58	0	0	48
TAP	58	0	1
HLD	58	48	7	144
TAP	58	144	6
HLD	58	192	0	144
TAP	58	288	1
HLD	58	336	7	336
STR	59	48	6
SI_	59	48	6	96	96	1
TAP	60	0	6
HLD	60	0	7	48
HLD	60	48	0	144
TAP	60	144	1
HLD	60	192	7	144
TAP	60	288	6
HLD	60	336	0	96
TAP	61	48	1
TAP	61	96	0
TAP	61	144	7
TAP	61	192	6
TAP	61	240	6
TAP	61	288	7
HLD	62	0	0	48
TAP	62	0	1
HLD	62	48	7	144
TAP	62	144	6
HLD	62	192	0	144
TAP	62	288	1
HLD	62	336	7	96
TAP	63	48	6
TAP	63	96	0
TAP	63	144	1
TAP	63	192	0
TAP	63	240	7
TAP	64	0	5
HLD	64	0	6	48
HLD	64	48	1	144
TAP	64	144	2
HLD	64	192	6	144
TAP	64	288	5
HLD	64	336	1	96
TAP	65	48	2
TAP	65	96	1
TAP	65	144	2
TAP	65	192	5
TAP	65	240	6
TAP	65	288	5
HLD	66	0	1	48
TAP	66	0	2
HLD	66	48	6	144
TAP	66	144	5
HLD	66	192	1	144
TAP	66	288	2
HLD	66	336	6	336
STR	67	48	5
SCL	67	48	5	96	144	2
TAP	68	0	0
HLD	68	0	1	96
TAP	68	48	7
HLD	68	144	6	96
TAP	68	144	7
TAP	68	192	0
TAP	68	288	0
HLD	68	288	1	96
TAP	68	336	7
HLD	69	48	6	96
TAP	69	48	7
TAP	69	96	0
TAP	69	192	0
TAP	69	192	7
TAP	69	288	2
TAP	69	288	5
HLD	70	0	6	96
TAP	70	0	7
TAP	70	48	0
TAP	70	144	0
HLD	70	144	1	96
TAP	70	192	7
HLD	70	288	6	96
TAP	70	288	7
TAP	70	336	0
STR	71	0	1
SI_	71	0	1	96	96	4
STR	71	192	3
SI_	71	192	3	96	96	6
HLD	72	0	0	768

T_REC_TAP	218
T_REC_BRK	4
T_REC_XTP	0
T_REC_HLD	75
T_REC_XHO	0
T_REC_STR	18
T_REC_BST	0
T_REC_XST	0
T_REC_TTP	0
T_REC_THO	0
T_REC_SLD	18
T_REC_ALL	333
T_NUM_TAP	236
T_NUM_BRK	4
T_NUM_HLD	75
T_NUM_SLD	18
T_NUM_ALL	333
T_JUDGE_TAP	240
T_JUDGE_HLD	268
T_JUDGE_SLD	18
T_JUDGE_ALL	526
TTM_EACHPAIRS	68
TTM_SCR_TAP	118000
TTM_SCR_BRK	10400
TTM_SCR_HLD	75000
TTM_SCR_SLD	27000
TTM_SCR_ALL	230400
TTM_SCR_S	223100
TTM_SCR_SS	230000
TTM_RAT_ACV	10017

