VERSION	0.00.00	1.03.00
FES_MODE	0
BPM_DEF	161.000	161.000	161.000	161.000
MET_DEF	4	4
RESOLUTION	384
CLK_DEF	384
COMPATIBLE_CODE	MA2

BPM	0	0	161.000
MET	0	0	4	4

HLD	3	0	2	96
HLD	3	192	5	96
HLD	4	0	3	192
HLD	4	192	4	192
HLD	5	0	2	192
HLD	5	192	5	192
HLD	6	0	1	192
HLD	6	192	6	192
HLD	7	0	0	192
HLD	7	192	7	192
TAP	8	0	0
TAP	8	96	1
TAP	8	192	0
TAP	8	288	2
TAP	9	0	0
TAP	9	96	3
TAP	9	192	0
TAP	9	288	4
TAP	10	0	7
TAP	10	96	6
TAP	10	192	7
TAP	10	288	5
TAP	11	0	7
TAP	11	96	4
TAP	11	192	7
TAP	11	288	3
HLD	12	0	4	192
TAP	13	0	1
TAP	13	0	3
TAP	13	192	4
TAP	13	192	6
TAP	14	0	3
TAP	14	0	4
TAP	14	96	2
TAP	14	96	5
TAP	14	192	1
TAP	14	192	6
BRK	14	288	0
TAP	14	288	7
STR	15	0	6
SI_	15	0	6	96	192	1
HLD	16	0	0	192
TAP	16	96	6
TAP	16	192	6
TAP	16	288	7
TAP	16	336	7
TAP	17	288	5
TAP	18	0	4
TAP	18	96	5
TAP	18	192	6
TAP	18	288	6
HLD	18	336	6	240
TAP	19	96	7
TAP	19	192	7
TAP	19	288	7
TAP	20	0	3
TAP	20	96	2
TAP	20	192	1
TAP	20	288	1
HLD	20	336	1	240
TAP	21	96	0
TAP	21	192	0
TAP	21	288	0
TAP	22	0	1
HLD	22	0	7	96
HLD	22	192	0	96
TAP	22	192	6
TAP	23	0	6
TAP	23	96	1
TAP	23	96	7
TAP	23	192	0
TAP	23	192	2
TAP	24	0	0
TAP	24	96	1
TAP	24	96	2
TAP	24	192	2
TAP	24	288	3
TAP	24	288	4
TAP	25	0	4
TAP	25	96	5
TAP	25	96	6
TAP	25	192	6
TAP	25	288	0
TAP	25	288	7
TAP	26	0	0
TAP	26	0	1
TAP	26	96	2
TAP	26	192	3
TAP	26	288	4
TAP	27	0	6
TAP	27	0	7
TAP	27	96	5
TAP	27	192	4
TAP	27	288	3
TAP	28	0	1
TAP	28	0	2
TAP	28	96	0
TAP	28	192	7
TAP	28	288	6
TAP	29	0	5
TAP	29	0	6
TAP	29	96	7
TAP	29	192	0
TAP	29	288	1
HLD	30	0	6	96
HLD	30	0	7	96
HLD	30	192	0	96
HLD	30	192	1	96
HLD	31	0	1	96
HLD	31	0	6	96
TAP	31	240	0
TAP	31	288	0
HLD	31	336	1	240
TAP	32	288	7
HLD	32	336	0	240
TAP	33	288	6
HLD	33	336	7	240
TAP	34	288	5
HLD	34	336	6	240
TAP	35	240	6
TAP	35	288	6
HLD	35	336	5	240
TAP	36	288	7
HLD	36	336	6	240
TAP	37	240	0
TAP	37	288	0
HLD	37	336	7	96
TAP	38	96	1
TAP	38	192	0
HLD	38	288	6	480
TAP	38	336	7
TAP	39	48	0
TAP	39	144	1
TAP	39	240	2
TAP	39	336	3
TAP	40	96	1
TAP	40	96	7
TAP	40	240	0
TAP	40	240	1
TAP	40	336	6
TAP	40	336	7
TAP	41	96	1
TAP	41	96	7
TAP	41	240	0
BRK	41	288	7
HLD	42	0	0	96
TAP	42	144	1
TAP	42	240	2
TAP	42	336	3
TAP	43	240	0
TAP	43	336	6
HLD	44	0	6	96
TAP	44	240	4
TAP	44	336	5
TAP	45	48	6
HLD	45	144	0	144
HLD	46	0	7	96
TAP	46	144	6
TAP	46	240	5
TAP	46	336	4
TAP	47	240	7
TAP	47	336	1
HLD	48	0	1	96
TAP	48	144	3
TAP	48	240	2
TAP	48	336	1
TAP	49	48	0
HLD	49	96	7	192
HLD	50	0	0	96
TAP	50	144	1
TAP	50	240	0
TAP	50	336	7
TAP	51	48	0
HLD	51	96	7	96
TAP	51	288	0
HLD	51	336	7	720
HLD	52	0	1	96
HLD	52	192	2	96
TAP	53	0	1
TAP	53	96	0
BRK	53	144	0
STR	54	0	0
SI_	54	0	0	96	192	3
STR	54	0	7
SI_	54	0	7	96	192	4
STR	55	0	3
SCL	55	0	3	96	192	0
STR	55	0	4
SCR	55	0	4	96	192	7
TAP	56	0	6
TAP	56	48	6
TAP	56	144	7
TAP	56	192	7
TAP	56	288	0
TAP	56	336	0
TAP	57	48	1
TAP	57	48	7
TAP	57	144	0
TAP	57	144	6
TAP	57	240	1
TAP	57	240	7
TAP	58	0	1
TAP	58	48	1
TAP	58	144	0
TAP	58	192	0
TAP	58	288	7
TAP	58	336	7
HLD	59	48	0	240
TAP	59	96	7
TAP	59	192	6
TAP	59	240	6
TAP	60	0	0
TAP	60	48	7
TAP	60	144	7
TAP	60	192	6
TAP	60	288	6
TAP	60	336	5
TAP	61	96	4
TAP	61	96	5
TAP	61	192	6
TAP	61	240	7
TAP	61	288	6
TAP	62	0	7
TAP	62	48	0
TAP	62	144	0
TAP	62	192	1
TAP	62	288	1
TAP	62	336	2
HLD	63	48	7	240
TAP	63	96	0
TAP	63	192	1
TAP	63	240	1
TAP	64	0	7
TAP	64	48	0
TAP	64	144	0
TAP	64	192	1
TAP	64	288	1
TAP	64	336	2
TAP	65	96	2
TAP	65	96	3
TAP	65	192	1
TAP	65	240	0
TAP	65	288	1
TAP	66	0	0
TAP	66	48	7
TAP	66	144	7
TAP	66	192	6
TAP	66	288	6
TAP	66	336	5
HLD	67	48	0	240
TAP	67	96	7
TAP	67	192	6
TAP	67	240	6
TAP	68	0	5
TAP	68	48	4
TAP	68	144	2
TAP	68	192	3
TAP	68	288	6
TAP	68	336	5
TAP	69	48	1
TAP	69	96	2
TAP	69	192	6
TAP	69	192	7
TAP	69	288	0
TAP	69	288	1
TAP	70	0	6
TAP	70	48	7
TAP	70	144	1
TAP	70	192	0
TAP	70	288	6
TAP	70	336	7
TAP	71	0	0
TAP	71	96	1
TAP	71	192	2
TAP	71	192	3
TAP	71	288	4
TAP	71	288	5
TAP	72	0	1
HLD	72	0	7	768
TAP	72	192	0
TAP	73	0	1
TAP	73	192	0
TAP	74	0	1
TAP	74	192	0
TAP	75	0	0
TAP	75	96	7
TAP	75	192	6
BRK	75	288	5

T_REC_TAP	229
T_REC_BRK	4
T_REC_XTP	0
T_REC_HLD	45
T_REC_XHO	0
T_REC_STR	5
T_REC_BST	0
T_REC_XST	0
T_REC_TTP	0
T_REC_THO	0
T_REC_SLD	5
T_REC_ALL	288
T_NUM_TAP	234
T_NUM_BRK	4
T_NUM_HLD	45
T_NUM_SLD	5
T_NUM_ALL	288
T_JUDGE_TAP	238
T_JUDGE_HLD	181
T_JUDGE_SLD	5
T_JUDGE_ALL	424
TTM_EACHPAIRS	37
TTM_SCR_TAP	117000
TTM_SCR_BRK	10400
TTM_SCR_HLD	45000
TTM_SCR_SLD	7500
TTM_SCR_ALL	179900
TTM_SCR_S	174150
TTM_SCR_SS	179500
TTM_RAT_ACV	10022

