VERSION	0.00.00	1.03.00
FES_MODE	0
BPM_DEF	161.000	161.000	161.000	161.000
MET_DEF	4	4
RESOLUTION	384
CLK_DEF	384
COMPATIBLE_CODE	MA2

BPM	0	0	161.000
MET	0	0	4	4

TAP	4	96	5
TAP	4	192	5
TAP	4	288	5
TAP	5	96	6
TAP	5	288	7
TAP	6	96	0
TAP	6	192	0
TAP	6	288	0
TAP	7	96	1
TAP	7	288	2
TAP	8	96	3
TAP	8	192	3
TAP	8	288	3
TAP	9	96	4
TAP	9	288	5
TAP	10	96	6
TAP	10	192	6
TAP	10	288	6
TAP	11	96	7
TAP	11	288	6
TAP	12	0	3
TAP	12	96	2
TAP	12	192	1
TAP	12	288	0
TAP	13	0	4
TAP	13	96	5
TAP	13	192	6
TAP	13	288	7
TAP	14	0	3
TAP	14	96	2
TAP	14	192	1
TAP	14	288	0
TAP	15	0	0
TAP	15	0	7
TAP	16	96	4
TAP	16	96	5
TAP	16	288	3
TAP	16	288	4
TAP	17	96	2
TAP	17	96	3
TAP	17	288	3
TAP	17	288	4
TAP	18	96	4
TAP	18	96	6
TAP	18	288	2
TAP	18	288	3
TAP	19	96	0
TAP	19	96	2
TAP	19	288	2
TAP	19	288	3
TAP	20	96	4
TAP	20	288	5
TAP	21	96	6
TAP	21	288	7
STR	22	96	6
SI_	22	96	6	96	96	2
TAP	23	96	0
TAP	23	288	0
TAP	24	96	7
TAP	24	288	7
TAP	25	96	6
TAP	25	288	6
TAP	26	96	5
TAP	26	288	5
TAP	27	96	4
TAP	27	288	3
TAP	28	96	2
TAP	28	288	1
STR	29	96	1
SI_	29	96	1	96	96	5
TAP	30	96	0
TAP	30	288	0
TAP	31	96	0
HLD	32	96	6	192
HLD	33	96	4	192
HLD	34	96	2	192
HLD	35	96	0	192
HLD	36	96	6	192
HLD	37	96	4	192
HLD	38	96	2	192
TAP	39	96	0
TAP	39	288	0
TAP	40	96	0
TAP	40	288	0
TAP	40	288	1
BRK	41	96	2
TAP	42	96	0
TAP	42	288	1
TAP	42	288	7
TAP	43	96	7
TAP	43	288	0
TAP	43	288	6
TAP	44	96	6
TAP	44	288	5
TAP	44	288	7
TAP	45	96	1
TAP	45	288	0
TAP	45	288	2
TAP	46	96	5
TAP	46	288	4
TAP	46	288	6
TAP	47	96	2
TAP	47	288	1
TAP	47	288	3
TAP	48	96	6
TAP	48	288	5
TAP	48	288	6
TAP	49	96	1
TAP	49	288	1
TAP	49	288	2
TAP	50	96	7
TAP	50	288	6
TAP	50	288	7
TAP	51	96	0
TAP	51	288	0
TAP	51	288	1
STR	52	96	6
SI_	52	96	6	96	96	1
STR	53	96	1
SI_	53	96	1	96	96	6
TAP	54	0	6
TAP	54	96	5
TAP	54	192	4
TAP	54	288	3
TAP	55	0	2
TAP	55	96	1
TAP	55	192	0
BRK	55	288	7
TAP	56	96	0
TAP	56	96	1
TAP	56	192	0
TAP	56	192	1
TAP	56	288	0
TAP	56	288	1
TAP	57	96	0
TAP	57	288	7
TAP	58	96	6
TAP	58	96	7
TAP	58	192	6
TAP	58	192	7
TAP	58	288	6
TAP	58	288	7
TAP	59	96	7
TAP	59	288	0
TAP	60	96	1
TAP	60	96	3
TAP	60	192	1
TAP	60	192	3
TAP	60	288	1
TAP	60	288	3
TAP	61	96	0
TAP	61	288	7
TAP	62	96	4
TAP	62	96	6
TAP	62	192	4
TAP	62	192	6
TAP	62	288	4
TAP	62	288	6
TAP	63	96	7
TAP	63	288	0
TAP	64	96	0
TAP	64	96	1
TAP	64	192	0
TAP	64	192	1
TAP	64	288	0
TAP	64	288	1
TAP	65	96	0
TAP	65	288	7
TAP	66	96	6
TAP	66	96	7
TAP	66	192	6
TAP	66	192	7
TAP	66	288	6
TAP	66	288	7
TAP	67	96	7
TAP	67	288	0
TAP	68	96	0
TAP	68	96	6
TAP	68	192	0
TAP	68	192	6
TAP	68	288	0
TAP	68	288	6
TAP	69	96	0
TAP	69	288	7
TAP	70	96	1
TAP	70	96	7
TAP	70	192	1
TAP	70	192	7
TAP	70	288	1
TAP	70	288	7
TAP	71	96	7
BRK	71	288	7
TAP	72	96	6
TAP	72	288	5
TAP	73	96	4
TAP	73	288	3
TAP	74	96	2
TAP	74	288	1
TAP	75	96	0
TAP	75	288	0

T_REC_TAP	182
T_REC_BRK	3
T_REC_XTP	0
T_REC_HLD	7
T_REC_XHO	0
T_REC_STR	4
T_REC_BST	0
T_REC_XST	0
T_REC_TTP	0
T_REC_THO	0
T_REC_SLD	4
T_REC_ALL	200
T_NUM_TAP	186
T_NUM_BRK	3
T_NUM_HLD	7
T_NUM_SLD	4
T_NUM_ALL	200
T_JUDGE_TAP	189
T_JUDGE_HLD	28
T_JUDGE_SLD	4
T_JUDGE_ALL	221
TTM_EACHPAIRS	44
TTM_SCR_TAP	93000
TTM_SCR_BRK	7800
TTM_SCR_HLD	7000
TTM_SCR_SLD	6000
TTM_SCR_ALL	113800
TTM_SCR_S	110100
TTM_SCR_SS	113500
TTM_RAT_ACV	10026

