VERSION	0.00.00	1.03.00
FES_MODE	0
BPM_DEF	132.000	132.000	132.000	132.000
MET_DEF	4	4
RESOLUTION	384
CLK_DEF	384
COMPATIBLE_CODE	MA2

BPM	0	0	132.000
MET	0	0	4	4

TAP	2	192	0
TAP	2	240	0
TAP	2	312	0
HLD	3	0	3	144
TAP	3	96	4
TAP	3	144	4
HLD	3	192	3	144
TAP	3	288	2
TAP	3	336	2
HLD	4	0	3	144
TAP	4	96	4
TAP	4	144	4
HLD	4	192	2	96
TAP	4	240	1
TAP	4	288	0
HLD	5	0	7	144
TAP	5	96	6
TAP	5	144	6
HLD	5	192	7	144
TAP	5	288	0
TAP	5	336	0
HLD	6	0	7	144
TAP	6	96	6
TAP	6	144	6
HLD	6	192	7	144
TAP	6	288	0
TAP	6	336	0
HLD	7	0	3	144
TAP	7	96	4
TAP	7	144	4
HLD	7	192	3	144
TAP	7	288	2
TAP	7	336	2
HLD	8	0	3	144
TAP	8	96	4
TAP	8	144	4
HLD	8	192	2	96
TAP	8	240	1
TAP	8	288	0
HLD	9	0	7	144
TAP	9	96	6
TAP	9	144	6
HLD	9	192	7	144
TAP	9	288	0
TAP	9	336	0
HLD	10	0	7	96
TAP	10	96	6
TAP	10	145	6
TAP	10	192	1
TAP	10	192	4
TAP	10	240	2
TAP	10	240	7
TAP	10	288	1
TAP	10	336	6
TAP	11	0	3
TAP	11	0	7
TAP	11	72	1
TAP	11	144	1
TAP	11	192	0
TAP	11	264	1
TAP	11	336	4
TAP	12	0	1
TAP	12	0	5
TAP	12	72	7
TAP	12	144	7
HLD	12	192	4	96
TAP	12	240	6
TAP	12	288	0
TAP	13	0	0
TAP	13	72	1
TAP	13	96	2
TAP	13	144	1
TAP	13	192	7
TAP	13	264	0
TAP	13	288	1
TAP	13	336	0
TAP	14	0	6
TAP	14	72	7
TAP	14	96	0
TAP	14	144	7
TAP	14	192	5
TAP	14	264	6
TAP	14	288	7
TAP	14	336	6
TAP	15	0	0
TAP	15	0	4
TAP	15	72	6
TAP	15	144	6
HLD	15	192	7	144
TAP	15	264	6
TAP	15	336	3
TAP	16	0	2
TAP	16	0	6
TAP	16	72	0
TAP	16	144	0
HLD	16	192	3	96
TAP	16	240	1
TAP	16	288	7
TAP	17	0	7
TAP	17	72	6
TAP	17	96	5
TAP	17	144	6
TAP	17	192	0
TAP	17	264	7
TAP	17	288	6
TAP	17	336	7
TAP	18	0	1
TAP	18	72	0
TAP	18	96	7
TAP	18	144	0
TAP	18	192	0
TAP	18	192	6
BRK	18	240	1
BRK	18	240	7
STR	19	0	2
SI_	19	0	2	96	96	7
TAP	19	72	0
TAP	19	144	1
TAP	19	192	2
TAP	19	240	2
TAP	19	288	2
STR	20	0	5
SI_	20	0	5	96	96	1
TAP	20	72	7
TAP	20	144	6
TAP	20	192	5
TAP	20	240	5
TAP	20	288	5
STR	21	0	2
SI_	21	0	2	96	96	7
TAP	21	72	0
TAP	21	144	1
TAP	21	192	2
TAP	21	240	2
STR	21	288	2
SI_	21	288	2	96	48	7
STR	22	0	6
SI_	22	0	6	96	48	3
STR	22	96	1
SI_	22	96	1	96	48	4
STR	22	192	5
SI_	22	192	5	96	48	0
STR	23	0	7
SI_	23	0	7	96	96	3
TAP	23	72	4
TAP	23	144	0
TAP	23	192	1
TAP	23	240	1
TAP	23	288	1
STR	24	0	3
SI_	24	0	3	96	96	7
TAP	24	72	4
TAP	24	144	2
TAP	24	192	3
TAP	24	240	3
TAP	24	288	3
STR	25	0	2
SI_	25	0	2	96	96	7
TAP	25	72	0
TAP	25	144	1
TAP	25	192	2
TAP	25	240	2
TAP	25	288	2
STR	26	0	5
SI_	26	0	5	96	96	1
TAP	26	72	7
TAP	26	144	6
TAP	26	192	5
TAP	26	240	5
TAP	26	288	5
BRK	27	0	6
STR	27	96	2
SCR	27	96	2	96	192	5
HLD	27	144	0	144
BRK	28	0	1
STR	28	96	5
SCL	28	96	5	96	192	2
HLD	28	144	7	144
TAP	29	0	1
TAP	29	96	1
TAP	29	192	1
TAP	29	288	1
TAP	30	0	7
TAP	30	72	3
TAP	30	96	4
TAP	30	144	2
TAP	30	192	5
BRK	30	240	1
BRK	30	240	6
HLD	31	0	3	96
TAP	31	0	4
TAP	31	96	2
TAP	31	192	3
HLD	31	192	4	96
TAP	31	288	5
HLD	32	0	3	96
TAP	32	0	4
TAP	32	96	2
TAP	32	192	3
HLD	32	192	4	96
TAP	32	240	5
BRK	32	288	6
HLD	33	0	0	96
TAP	33	0	1
TAP	33	96	7
TAP	33	192	6
HLD	33	192	7	96
TAP	33	288	0
HLD	34	0	0	96
TAP	34	0	1
TAP	34	96	7
TAP	34	192	6
HLD	34	192	7	96
TAP	34	240	0
BRK	34	288	1
HLD	35	0	6	96
TAP	35	48	5
TAP	35	96	4
HLD	35	192	1	96
TAP	35	240	2
TAP	35	288	3
HLD	36	0	7	96
TAP	36	48	6
TAP	36	96	5
HLD	36	192	0	96
TAP	36	240	1
TAP	36	288	2
TAP	37	0	5
TAP	37	0	6
TAP	37	72	0
TAP	37	96	7
TAP	37	144	0
TAP	37	192	1
TAP	37	192	2
TAP	37	264	7
TAP	37	288	0
TAP	37	336	7
TAP	38	0	2
TAP	38	0	5
TAP	38	72	4
TAP	38	96	3
TAP	38	144	4
TAP	38	192	5
TAP	38	240	1
TAP	38	264	0
STR	38	288	1
SCL	38	288	1	96	48	6
TAP	38	336	7
BRK	39	0	6
TAP	39	72	1
TAP	39	96	2
TAP	39	144	7
TAP	39	192	6
TAP	39	192	7
TAP	39	264	4
TAP	39	288	5
TAP	39	336	4
TAP	40	0	2
BRK	40	0	3
TAP	40	72	1
TAP	40	96	0
TAP	40	144	1
TAP	40	192	4
TAP	40	192	5
TAP	40	264	6
STR	40	288	7
SCL	40	288	7	96	48	4
TAP	40	336	0
TAP	41	0	3
TAP	41	72	2
TAP	41	96	1
TAP	41	144	2
TAP	41	192	3
TAP	41	192	4
TAP	41	264	5
TAP	41	288	6
TAP	41	336	5
TAP	42	0	4
TAP	42	96	2
TAP	42	96	3
TAP	42	192	0
TAP	42	192	1
STR	42	288	6
SCL	42	288	6	96	48	3
TAP	42	336	7
BRK	43	0	0
TAP	43	72	2
TAP	43	96	3
TAP	43	144	2
TAP	43	192	3
TAP	43	192	4
TAP	43	264	7
TAP	43	288	6
TAP	43	336	7
BRK	44	0	4
TAP	44	0	5
TAP	44	48	3
TAP	44	96	2
TAP	44	144	3
TAP	44	240	0
STR	44	288	1
SI_	44	288	1	96	48	4
TAP	44	336	2
STR	45	0	5
SI_	45	0	5	96	48	0
STR	45	96	7
SI_	45	96	7	96	48	4
STR	45	192	3
SI_	45	192	3	96	192	0
TAP	46	0	4
TAP	46	96	4
TAP	46	192	1
TAP	46	240	1
TAP	46	288	1
TAP	46	336	1
TAP	47	0	6
BRK	47	0	7
TAP	47	72	1
TAP	47	96	0
TAP	47	144	1
TAP	47	192	4
TAP	47	192	5
TAP	47	264	6
TAP	47	288	7
TAP	47	336	6
STR	48	0	0
SI_	48	0	0	96	48	4
TAP	48	0	1
TAP	48	48	2
STR	48	96	7
SI_	48	96	7	96	48	3
STR	48	192	6
SI_	48	192	6	96	48	2
TAP	49	0	3
TAP	49	0	4
TAP	49	72	2
TAP	49	96	1
TAP	49	144	2
TAP	49	192	3
TAP	49	192	4
TAP	49	264	5
TAP	49	288	6
TAP	49	336	5
STR	50	0	4
SI_	50	0	4	96	48	0
TAP	50	48	3
STR	50	96	6
SI_	50	96	6	96	48	2
HLD	50	240	0	96
TAP	50	288	7
TAP	50	336	6
STR	51	0	7
SI_	51	0	7	96	192	4
TAP	51	192	3
BRK	51	288	2
STR	52	0	0
SI_	52	0	0	96	192	3
TAP	52	192	7
BRK	52	288	6
STR	53	0	7
SI_	53	0	7	96	192	4
TAP	53	192	3
BRK	53	288	2
STR	54	0	1
SI_	54	0	1	96	48	6
TAP	54	192	0
TAP	54	192	4
TAP	54	240	1
TAP	54	240	7
TAP	54	288	2
TAP	54	288	6

T_REC_TAP	264
T_REC_BRK	16
T_REC_XTP	0
T_REC_HLD	33
T_REC_XHO	0
T_REC_STR	29
T_REC_BST	0
T_REC_XST	0
T_REC_TTP	0
T_REC_THO	0
T_REC_SLD	29
T_REC_ALL	371
T_NUM_TAP	293
T_NUM_BRK	16
T_NUM_HLD	33
T_NUM_SLD	29
T_NUM_ALL	371
T_JUDGE_TAP	309
T_JUDGE_HLD	81
T_JUDGE_SLD	29
T_JUDGE_ALL	419
TTM_EACHPAIRS	36
TTM_SCR_TAP	146500
TTM_SCR_BRK	41600
TTM_SCR_HLD	33000
TTM_SCR_SLD	43500
TTM_SCR_ALL	264600
TTM_SCR_S	255150
TTM_SCR_SS	263000
TTM_RAT_ACV	10060

