VERSION	0.00.00	1.03.00
FES_MODE	0
BPM_DEF	132.000	132.000	132.000	132.000
MET_DEF	4	4
RESOLUTION	384
CLK_DEF	384
COMPATIBLE_CODE	MA2

BPM	0	0	132.000
MET	0	0	4	4

HLD	3	0	5	96
HLD	3	192	4	96
HLD	4	0	5	96
HLD	4	192	6	192
TAP	4	192	7
TAP	4	288	0
HLD	5	0	1	96
HLD	5	192	0	96
HLD	6	0	1	96
HLD	6	192	0	96
HLD	7	0	2	96
HLD	7	192	3	96
HLD	8	0	2	96
TAP	8	192	0
HLD	8	192	1	192
TAP	8	288	7
HLD	9	0	6	96
HLD	9	192	5	96
HLD	10	0	6	96
TAP	10	192	0
TAP	10	240	0
BRK	10	288	0
HLD	11	0	5	192
TAP	11	96	4
HLD	11	192	2	192
TAP	11	288	3
HLD	12	0	7	192
TAP	12	96	6
HLD	12	192	0	192
TAP	12	240	1
TAP	12	288	1
STR	13	0	6
SCR	13	0	6	96	96	1
STR	14	0	1
SCL	14	0	1	96	96	6
HLD	15	0	2	192
TAP	15	96	3
HLD	15	192	5	192
TAP	15	288	4
HLD	16	0	0	192
TAP	16	96	1
HLD	16	192	7	192
TAP	16	240	6
TAP	16	288	6
STR	17	0	1
SCL	17	0	1	96	96	6
STR	17	192	5
SCL	17	192	5	96	96	2
STR	18	0	1
SCL	18	0	1	96	96	6
TAP	18	192	0
BRK	18	288	0
BRK	18	288	7
TAP	19	0	7
TAP	19	72	0
TAP	19	144	1
TAP	19	192	1
TAP	19	264	0
TAP	19	336	7
TAP	20	0	7
TAP	20	72	6
TAP	20	144	5
TAP	20	192	5
TAP	20	288	0
TAP	20	288	7
TAP	21	0	1
TAP	21	72	2
TAP	21	144	3
TAP	21	192	3
TAP	21	264	4
TAP	21	336	5
HLD	22	0	5	288
TAP	22	96	6
TAP	22	192	6
TAP	22	288	6
TAP	23	0	0
TAP	23	72	1
TAP	23	144	2
TAP	23	192	2
TAP	23	264	1
TAP	23	336	0
TAP	24	0	0
TAP	24	72	7
TAP	24	144	6
TAP	24	192	6
TAP	24	264	5
TAP	24	336	4
TAP	25	0	4
TAP	25	96	5
TAP	25	96	6
TAP	25	192	7
TAP	25	288	0
TAP	25	288	7
TAP	26	0	1
TAP	26	96	1
TAP	26	96	2
TAP	26	192	3
TAP	26	192	4
TAP	26	288	5
HLD	26	288	6	96
HLD	27	0	0	384
TAP	27	96	1
TAP	27	192	1
TAP	27	288	1
HLD	28	0	4	288
TAP	28	96	3
TAP	28	192	3
TAP	28	288	3
HLD	29	0	1	288
HLD	29	0	6	288
TAP	30	0	1
TAP	30	0	7
TAP	30	96	0
TAP	30	96	6
TAP	30	192	0
TAP	30	192	7
BRK	30	240	0
BRK	30	240	7
TAP	31	0	1
TAP	31	0	5
TAP	31	96	2
TAP	31	96	6
TAP	31	192	0
TAP	31	240	1
TAP	31	288	0
TAP	32	0	2
TAP	32	0	6
TAP	32	96	1
TAP	32	96	5
TAP	32	192	7
TAP	32	240	6
TAP	32	288	7
TAP	33	0	1
TAP	33	0	5
TAP	33	96	2
TAP	33	96	6
TAP	33	192	4
TAP	33	240	5
TAP	33	288	4
TAP	34	0	2
TAP	34	0	6
TAP	34	96	1
TAP	34	96	5
TAP	34	192	3
TAP	34	240	2
TAP	34	288	3
TAP	35	0	0
TAP	35	0	1
TAP	35	96	6
TAP	35	96	7
TAP	35	192	5
TAP	35	240	4
TAP	35	288	5
TAP	36	0	6
TAP	36	0	7
TAP	36	96	0
TAP	36	96	1
TAP	36	192	2
TAP	36	240	3
TAP	36	288	2
TAP	37	0	3
TAP	37	0	7
TAP	37	96	2
TAP	37	96	6
TAP	37	192	1
TAP	37	192	5
TAP	37	288	0
TAP	37	288	4
TAP	38	0	1
TAP	38	0	5
TAP	38	96	2
TAP	38	96	6
TAP	38	192	3
TAP	38	192	7
BRK	38	288	0
TAP	38	288	4
TAP	39	0	0
TAP	39	0	7
TAP	39	72	1
TAP	39	144	2
TAP	39	192	1
TAP	39	192	2
TAP	39	264	0
TAP	39	336	7
TAP	40	0	0
TAP	40	0	7
TAP	40	72	6
TAP	40	144	5
TAP	40	192	5
TAP	40	192	6
TAP	40	264	7
TAP	40	336	0
TAP	41	0	0
HLD	41	0	7	192
TAP	41	72	6
TAP	41	144	5
HLD	41	192	3	192
TAP	41	264	2
TAP	41	336	1
STR	42	0	0
SCL	42	0	0	96	96	5
STR	42	192	7
SCR	42	192	7	96	96	2
TAP	43	0	1
TAP	43	72	0
TAP	43	144	7
TAP	43	192	6
TAP	43	192	7
TAP	43	264	7
TAP	43	336	0
TAP	44	0	0
TAP	44	0	1
TAP	44	72	0
TAP	44	144	7
TAP	44	192	6
TAP	44	192	7
TAP	44	264	7
TAP	44	336	0
STR	45	0	1
SCR	45	0	1	96	96	4
STR	45	192	5
SCR	45	192	5	96	96	0
TAP	46	240	5
TAP	46	288	5
TAP	46	336	6
TAP	47	0	0
TAP	47	0	7
TAP	47	72	1
TAP	47	72	3
TAP	47	144	2
TAP	47	144	3
TAP	47	192	0
TAP	47	192	2
TAP	47	264	0
TAP	47	264	7
TAP	47	336	6
TAP	48	0	5
TAP	48	48	6
TAP	48	96	7
TAP	48	144	0
TAP	49	0	3
TAP	49	0	4
TAP	49	72	0
TAP	49	72	2
TAP	49	144	0
TAP	49	144	1
TAP	49	192	1
TAP	49	192	3
TAP	49	264	3
TAP	49	264	4
TAP	49	336	5
TAP	50	0	6
TAP	50	48	5
TAP	50	96	4
TAP	50	144	3
TAP	50	240	1
TAP	50	288	1
TAP	50	336	0
STR	51	0	7
SI_	51	0	7	96	96	2
STR	51	192	3
SI_	51	192	3	96	96	6
STR	52	0	7
SI_	52	0	7	96	96	2
STR	52	192	3
SCR	52	192	3	96	96	6
STR	53	0	7
SI_	53	0	7	96	96	2
STR	53	192	3
SI_	53	192	3	96	96	6
STR	54	0	7
SCR	54	0	7	96	96	2
TAP	54	192	6
TAP	54	240	6
BRK	54	288	6

T_REC_TAP	205
T_REC_BRK	7
T_REC_XTP	0
T_REC_HLD	31
T_REC_XHO	0
T_REC_STR	16
T_REC_BST	0
T_REC_XST	0
T_REC_TTP	0
T_REC_THO	0
T_REC_SLD	16
T_REC_ALL	275
T_NUM_TAP	221
T_NUM_BRK	7
T_NUM_HLD	31
T_NUM_SLD	16
T_NUM_ALL	275
T_JUDGE_TAP	228
T_JUDGE_HLD	108
T_JUDGE_SLD	16
T_JUDGE_ALL	352
TTM_EACHPAIRS	52
TTM_SCR_TAP	110500
TTM_SCR_BRK	18200
TTM_SCR_HLD	31000
TTM_SCR_SLD	24000
TTM_SCR_ALL	183700
TTM_SCR_S	177550
TTM_SCR_SS	183000
TTM_RAT_ACV	10038

