VERSION	0.00.00	1.03.00
FES_MODE	0
BPM_DEF	132.000	132.000	132.000	132.000
MET_DEF	4	4
RESOLUTION	384
CLK_DEF	384
COMPATIBLE_CODE	MA2

BPM	0	0	132.000
MET	0	0	4	4

TAP	2	0	2
HLD	2	192	1	96
TAP	3	0	0
TAP	3	192	1
TAP	4	0	2
HLD	4	192	1	192
TAP	4	288	0
TAP	5	0	7
TAP	5	192	6
TAP	6	0	5
HLD	6	192	6	192
TAP	6	288	7
TAP	7	0	0
TAP	7	192	1
TAP	8	0	2
HLD	8	192	3	192
TAP	8	288	4
TAP	9	0	5
TAP	9	192	6
TAP	10	0	5
HLD	10	192	4	192
TAP	10	288	3
HLD	11	0	2	96
HLD	11	192	1	96
TAP	12	0	7
TAP	12	96	6
TAP	12	192	5
TAP	12	192	6
TAP	12	288	5
HLD	13	0	7	96
TAP	13	96	0
HLD	13	192	5	96
TAP	13	288	0
HLD	14	0	3	96
STR	14	96	0
SI_	14	96	0	96	96	4
TAP	15	0	1
TAP	15	96	1
TAP	15	192	6
TAP	15	192	7
TAP	15	288	5
TAP	16	0	6
TAP	16	96	6
TAP	16	192	0
TAP	16	192	1
TAP	16	288	2
HLD	17	0	3	96
TAP	17	96	4
HLD	17	192	1	96
TAP	17	288	4
HLD	18	0	7	96
STR	18	96	4
SI_	18	96	4	96	96	0
TAP	19	0	3
HLD	19	0	4	96
TAP	19	96	3
TAP	19	192	2
HLD	19	192	3	96
TAP	19	288	2
TAP	20	0	1
TAP	20	96	2
TAP	20	192	1
HLD	21	0	3	96
TAP	21	0	4
TAP	21	96	4
HLD	21	192	4	96
TAP	21	192	5
TAP	21	288	5
TAP	22	0	5
TAP	22	96	6
TAP	22	192	5
TAP	22	288	6
TAP	23	0	2
HLD	23	0	5	96
TAP	23	96	4
HLD	23	192	2	96
TAP	23	192	5
TAP	23	288	3
TAP	24	0	1
HLD	24	0	6	96
TAP	24	96	7
HLD	24	192	1	96
TAP	24	192	6
TAP	24	288	0
TAP	25	0	7
TAP	25	96	0
HLD	25	192	1	96
TAP	26	0	0
TAP	26	96	7
HLD	26	192	6	96
TAP	27	0	4
TAP	27	96	3
TAP	27	192	4
TAP	27	288	3
TAP	28	0	3
TAP	28	0	5
TAP	28	96	2
TAP	28	96	4
TAP	28	192	3
TAP	28	192	5
TAP	28	288	2
TAP	28	288	4
TAP	29	0	1
TAP	29	0	2
TAP	29	96	0
TAP	29	96	1
TAP	29	192	0
TAP	29	192	7
TAP	29	288	6
TAP	29	288	7
TAP	30	0	6
TAP	30	96	7
TAP	30	192	0
BRK	30	240	0
HLD	31	0	7	96
TAP	31	96	1
HLD	31	192	0	96
TAP	31	288	6
HLD	32	0	5	288
TAP	32	96	6
TAP	32	192	7
TAP	32	288	0
HLD	33	0	3	96
TAP	33	96	5
HLD	33	192	4	96
TAP	33	288	2
HLD	34	0	2	288
TAP	34	96	1
TAP	34	192	0
TAP	34	288	7
HLD	35	0	7	96
TAP	35	96	1
HLD	35	192	0	96
TAP	35	288	6
HLD	36	0	6	96
TAP	36	96	0
HLD	36	192	1	96
TAP	36	288	7
TAP	37	96	1
TAP	37	96	3
TAP	37	288	0
TAP	37	288	2
TAP	38	96	1
TAP	38	96	7
TAP	38	288	0
TAP	38	288	6
HLD	39	0	6	96
TAP	39	0	7
HLD	39	96	0	96
TAP	39	192	7
TAP	40	0	0
HLD	40	0	1	96
HLD	40	96	7	96
TAP	40	192	0
TAP	41	0	3
HLD	41	0	4	96
HLD	41	96	2	96
TAP	41	192	3
HLD	42	0	0	96
TAP	42	0	7
HLD	42	96	6	96
TAP	42	192	7
TAP	43	0	1
TAP	43	0	5
TAP	43	96	2
TAP	43	192	3
TAP	43	192	7
TAP	43	288	5
TAP	44	0	1
TAP	44	0	5
TAP	44	96	2
TAP	44	192	2
TAP	44	192	6
TAP	44	288	3
TAP	44	288	7
STR	45	0	0
SI_	45	0	0	96	192	4
TAP	46	0	2
TAP	46	96	1
TAP	46	192	0
TAP	46	288	7
TAP	47	0	0
HLD	47	0	6	192
HLD	47	192	4	96
TAP	48	0	0
HLD	48	0	2	192
HLD	48	192	4	96
HLD	49	0	1	192
TAP	49	0	7
HLD	49	192	3	96
HLD	50	0	6	288
HLD	50	96	2	192
STR	51	0	1
SI_	51	0	1	96	96	4
STR	52	0	2
SI_	52	0	2	96	96	5
STR	53	0	5
SI_	53	0	5	96	96	0
STR	54	0	6
SI_	54	0	6	96	96	1
TAP	55	0	2
TAP	55	0	6
TAP	55	192	4
TAP	56	0	1
TAP	56	0	5
TAP	56	192	3
TAP	57	0	2
TAP	57	0	6
TAP	57	192	0
TAP	58	0	1
TAP	58	0	5

T_REC_TAP	147
T_REC_BRK	1
T_REC_XTP	0
T_REC_HLD	49
T_REC_XHO	0
T_REC_STR	7
T_REC_BST	0
T_REC_XST	0
T_REC_TTP	0
T_REC_THO	0
T_REC_SLD	7
T_REC_ALL	211
T_NUM_TAP	154
T_NUM_BRK	1
T_NUM_HLD	49
T_NUM_SLD	7
T_NUM_ALL	211
T_JUDGE_TAP	155
T_JUDGE_HLD	126
T_JUDGE_SLD	7
T_JUDGE_ALL	288
TTM_EACHPAIRS	39
TTM_SCR_TAP	77000
TTM_SCR_BRK	2600
TTM_SCR_HLD	49000
TTM_SCR_SLD	10500
TTM_SCR_ALL	139100
TTM_SCR_S	134850
TTM_SCR_SS	139000
TTM_RAT_ACV	10007

