VERSION	0.00.00	1.03.00
FES_MODE	0
BPM_DEF	132.000	132.000	132.000	132.000
MET_DEF	4	4
RESOLUTION	384
CLK_DEF	384
COMPATIBLE_CODE	MA2

BPM	0	0	132.000
MET	0	0	4	4

TAP	2	0	2
TAP	2	192	1
TAP	3	0	0
TAP	3	192	7
TAP	4	0	0
TAP	4	192	7
TAP	5	0	5
TAP	5	192	4
TAP	6	0	3
TAP	6	192	2
TAP	7	0	0
TAP	7	192	7
TAP	8	0	0
TAP	8	192	7
TAP	9	0	5
TAP	9	192	4
TAP	10	0	3
TAP	10	192	2
TAP	11	0	0
TAP	11	96	7
TAP	11	192	6
TAP	12	0	7
TAP	12	96	0
TAP	12	192	1
HLD	13	0	2	192
TAP	14	0	2
TAP	14	192	2
TAP	15	0	4
TAP	15	96	3
TAP	15	192	2
TAP	16	0	3
TAP	16	96	4
TAP	16	192	5
HLD	17	0	6	192
TAP	18	0	5
TAP	18	192	5
TAP	19	0	4
TAP	19	96	2
TAP	19	96	3
TAP	19	192	2
TAP	20	0	3
TAP	20	96	4
TAP	20	96	5
TAP	20	192	5
TAP	21	0	7
TAP	21	96	0
TAP	21	96	6
TAP	21	192	7
TAP	22	0	0
TAP	22	96	1
TAP	22	96	7
TAP	22	192	0
TAP	23	0	6
TAP	23	96	4
TAP	23	96	5
TAP	23	192	6
TAP	24	0	1
TAP	24	96	2
TAP	24	96	3
HLD	24	192	1	96
TAP	25	0	6
TAP	25	96	7
HLD	25	192	0	96
TAP	26	0	1
TAP	26	96	0
HLD	26	192	7	96
TAP	27	0	4
TAP	27	96	4
TAP	27	192	4
TAP	27	288	4
TAP	28	0	3
TAP	28	96	3
TAP	28	192	3
TAP	28	288	3
TAP	29	0	2
TAP	29	96	1
TAP	29	192	0
TAP	29	288	0
TAP	29	288	7
TAP	30	0	6
TAP	30	96	7
BRK	30	192	0
TAP	31	0	7
TAP	31	96	0
TAP	31	192	7
TAP	31	288	0
TAP	32	0	7
TAP	32	96	0
TAP	32	96	7
TAP	32	192	7
TAP	32	288	0
TAP	32	288	7
TAP	33	0	5
TAP	33	96	4
TAP	33	192	5
TAP	33	288	4
TAP	34	0	5
TAP	34	96	4
TAP	34	96	5
TAP	34	192	5
TAP	34	288	4
TAP	34	288	5
TAP	35	0	3
TAP	35	96	2
TAP	35	192	3
TAP	35	288	2
TAP	36	0	3
TAP	36	96	2
TAP	36	96	3
TAP	36	192	3
TAP	36	288	2
TAP	36	288	3
TAP	37	96	1
TAP	37	96	3
TAP	37	288	0
TAP	37	288	2
TAP	38	96	1
TAP	38	96	7
TAP	38	288	0
TAP	38	288	6
HLD	39	0	7	96
TAP	39	192	0
TAP	39	288	0
HLD	40	0	1	96
TAP	40	192	6
TAP	40	288	6
HLD	41	0	1	96
HLD	41	0	6	96
TAP	41	192	7
TAP	41	288	0
HLD	42	0	1	96
TAP	42	192	0
TAP	42	288	7
TAP	43	0	0
TAP	43	0	7
TAP	43	192	6
TAP	43	192	7
TAP	44	0	0
TAP	44	0	7
TAP	44	192	0
TAP	44	192	1
STR	45	0	1
SI_	45	0	1	96	96	5
TAP	46	0	6
TAP	46	96	7
TAP	46	192	0
BRK	46	288	1
HLD	47	0	7	96
TAP	47	192	1
TAP	47	288	1
HLD	48	0	0	96
TAP	48	192	6
TAP	48	288	6
HLD	49	0	0	96
HLD	49	0	7	96
TAP	49	192	5
TAP	49	192	6
HLD	50	0	4	96
TAP	50	192	3
TAP	50	288	2
STR	51	0	1
SI_	51	0	1	96	96	4
STR	52	0	6
SI_	52	0	6	96	96	3
STR	53	0	2
SI_	53	0	2	96	96	6
STR	54	0	5
SI_	54	0	5	96	96	1
TAP	55	0	0
TAP	55	0	6
TAP	55	192	7
TAP	56	0	5
TAP	56	0	7
TAP	56	192	6
TAP	57	0	1
TAP	57	0	7
TAP	57	192	0
TAP	58	0	0
TAP	58	0	7

T_REC_TAP	152
T_REC_BRK	2
T_REC_XTP	0
T_REC_HLD	15
T_REC_XHO	0
T_REC_STR	5
T_REC_BST	0
T_REC_XST	0
T_REC_TTP	0
T_REC_THO	0
T_REC_SLD	5
T_REC_ALL	179
T_NUM_TAP	157
T_NUM_BRK	2
T_NUM_HLD	15
T_NUM_SLD	5
T_NUM_ALL	179
T_JUDGE_TAP	159
T_JUDGE_HLD	34
T_JUDGE_SLD	5
T_JUDGE_ALL	198
TTM_EACHPAIRS	28
TTM_SCR_TAP	78500
TTM_SCR_BRK	5200
TTM_SCR_HLD	15000
TTM_SCR_SLD	7500
TTM_SCR_ALL	106200
TTM_SCR_S	102850
TTM_SCR_SS	106000
TTM_RAT_ACV	10018

