VERSION	0.00.00	1.03.00
FES_MODE	0
BPM_DEF	190.000	190.000	190.000	190.000
MET_DEF	4	4
RESOLUTION	384
CLK_DEF	384
COMPATIBLE_CODE	MA2

BPM	0	0	190.000
MET	0	0	4	4

TAP	1	0	3
TAP	1	48	4
TAP	1	96	3
TAP	1	192	3
TAP	1	240	4
TAP	1	288	3
TAP	2	0	1
TAP	2	48	0
TAP	2	96	1
TAP	2	144	0
TAP	2	192	1
TAP	2	240	0
TAP	2	287	1
TAP	3	0	4
TAP	3	48	3
TAP	3	96	4
TAP	3	192	4
TAP	3	240	3
TAP	3	288	4
TAP	4	0	6
TAP	4	48	7
TAP	4	96	6
TAP	4	144	7
TAP	4	192	6
TAP	4	240	7
TAP	4	288	6
HLD	5	0	1	192
TAP	5	96	2
TAP	5	144	2
TAP	5	192	2
TAP	5	288	7
TAP	5	336	6
TAP	6	48	3
TAP	6	96	2
TAP	6	192	7
TAP	6	240	7
TAP	6	288	7
HLD	7	0	5	192
TAP	7	96	6
TAP	7	144	6
TAP	7	192	6
TAP	7	288	3
TAP	7	336	2
TAP	8	48	7
TAP	8	96	6
TAP	8	192	3
TAP	8	240	3
TAP	8	288	3
HLD	9	0	6	192
TAP	9	96	5
TAP	9	144	5
TAP	9	192	5
TAP	9	288	0
TAP	9	336	1
TAP	10	48	4
TAP	10	96	5
TAP	10	192	0
TAP	10	240	0
TAP	10	288	0
HLD	11	0	2	192
TAP	11	96	1
TAP	11	144	1
TAP	11	192	1
TAP	11	288	4
TAP	11	336	5
TAP	12	48	0
TAP	12	96	1
TAP	12	144	7
TAP	12	192	6
TAP	12	240	6
BRK	12	288	6
TAP	13	0	5
HLD	13	0	7	96
TAP	13	96	1
TAP	13	192	1
HLD	13	192	3	96
TAP	13	288	5
TAP	14	0	6
TAP	14	48	5
TAP	14	96	6
TAP	14	192	0
TAP	14	192	7
HLD	15	0	0	96
TAP	15	0	2
TAP	15	96	6
HLD	15	192	4	96
TAP	15	192	6
TAP	15	288	2
TAP	16	0	1
TAP	16	48	2
TAP	16	96	1
TAP	16	192	3
TAP	16	192	4
TAP	17	0	5
TAP	17	96	3
TAP	17	96	7
TAP	17	192	1
TAP	17	240	1
TAP	17	288	1
TAP	18	0	2
TAP	18	96	0
TAP	18	96	4
TAP	18	192	6
TAP	18	240	6
TAP	18	288	6
TAP	19	0	0
TAP	19	96	2
TAP	19	192	0
TAP	19	288	7
TAP	20	0	2
HLD	20	96	4	192
HLD	20	192	3	96
TAP	21	0	0
TAP	21	48	1
HLD	21	96	2	96
TAP	21	192	6
TAP	21	240	5
HLD	21	288	4	96
TAP	22	0	1
TAP	22	48	1
STR	22	96	0
SI_	22	96	0	96	96	3
TAP	23	0	7
TAP	23	48	6
HLD	23	96	5	96
TAP	23	192	1
TAP	23	240	2
HLD	23	288	3	96
TAP	24	0	6
TAP	24	48	6
TAP	24	96	7
TAP	24	192	3
TAP	24	192	4
HLD	25	0	1	96
HLD	25	96	5	96
HLD	25	192	2	96
HLD	25	288	6	96
HLD	26	0	0	96
HLD	26	96	7	96
TAP	26	192	3
TAP	26	240	4
TAP	26	288	3
HLD	27	0	0	96
HLD	27	96	7	96
HLD	27	192	3	96
HLD	27	288	4	96
HLD	28	0	2	96
TAP	28	96	5
TAP	28	192	1
BRK	28	192	6
TAP	28	288	0
BRK	28	288	7
STR	29	0	0
SI_	29	0	0	96	96	3
STR	29	192	4
SI_	29	192	4	96	192	7
TAP	30	192	0
HLD	30	288	1	96
STR	31	0	2
SI_	31	0	2	96	96	5
STR	31	192	6
SI_	31	192	6	96	192	1
TAP	32	192	2
HLD	32	288	1	96
STR	33	0	0
SI_	33	0	0	96	96	5
STR	33	192	4
SI_	33	192	4	96	192	1
TAP	34	192	0
HLD	34	288	7	96
STR	35	0	6
SI_	35	0	6	96	96	3
STR	35	192	2
SI_	35	192	2	96	192	7
TAP	36	96	1
TAP	36	192	2
TAP	36	240	2
BRK	36	288	1
BRK	36	288	6
HLD	37	0	6	192
TAP	37	96	5
HLD	37	192	1	192
TAP	37	288	2
HLD	38	0	5	192
TAP	38	96	4
HLD	38	192	2	96
TAP	38	288	3
HLD	39	0	5	192
TAP	39	96	6
HLD	39	192	2	192
TAP	39	288	1
TAP	40	0	7
TAP	40	96	0
TAP	40	192	0
TAP	40	192	7
HLD	41	0	1	96
HLD	41	96	6	96
HLD	41	192	2	96
HLD	41	288	5	96
HLD	42	0	3	96
HLD	42	96	4	96
TAP	42	192	3
TAP	42	240	3
TAP	42	288	3
HLD	43	0	4	96
HLD	43	96	3	96
HLD	43	192	5	96
HLD	43	288	2	96
TAP	44	0	6
TAP	44	48	6
TAP	44	96	6
TAP	44	192	1
TAP	44	192	6
TAP	45	0	0
TAP	45	48	1
HLD	45	96	2	96
TAP	45	192	6
TAP	45	240	5
HLD	45	288	4	96
TAP	46	0	1
TAP	46	48	1
STR	46	96	0
SI_	46	96	0	96	96	3
TAP	47	0	7
TAP	47	48	6
HLD	47	96	5	96
TAP	47	192	1
TAP	47	240	2
HLD	47	288	3	96
TAP	48	0	6
TAP	48	48	6
TAP	48	96	7
TAP	48	192	3
TAP	48	192	4
TAP	49	0	1
TAP	49	0	5
TAP	49	96	3
STR	49	96	7
SI_	49	96	7	96	96	3
TAP	49	192	0
TAP	49	240	0
BRK	49	288	0
TAP	50	0	2
TAP	50	0	6
STR	50	96	0
SI_	50	96	0	96	96	4
TAP	50	96	4
TAP	50	192	7
TAP	50	240	7
BRK	50	288	7
STR	51	0	1
SI_	51	0	1	96	96	4
STR	51	192	3
SI_	51	192	3	96	96	6
TAP	52	0	0
TAP	52	48	1
TAP	52	96	0
TAP	52	192	0
TAP	52	192	7
HLD	53	0	0	96
HLD	53	0	4	96
HLD	53	192	2	96
HLD	53	192	6	96
HLD	54	0	3	96
HLD	54	0	7	96
HLD	54	192	1	96
HLD	54	192	5	96
HLD	55	0	5	384
TAP	55	96	6
TAP	55	192	7
TAP	55	288	0
TAP	56	0	1
TAP	56	48	1
TAP	56	96	1
TAP	56	192	6
TAP	56	192	7
HLD	57	0	0	96
HLD	57	0	4	96
HLD	57	192	2	96
HLD	57	192	6	96
HLD	58	0	3	96
HLD	58	0	7	96
HLD	58	192	1	96
HLD	58	192	5	96
STR	59	0	6
SI_	59	0	6	96	96	1
STR	59	192	2
SI_	59	192	2	96	96	5
HLD	60	0	2	96
TAP	60	96	4
TAP	60	192	3
TAP	60	192	4
HLD	61	0	0	96
HLD	61	0	4	96
HLD	61	192	2	96
HLD	61	192	6	96
HLD	62	0	3	96
HLD	62	0	7	96
HLD	62	192	1	96
HLD	62	192	5	96
HLD	63	0	3	96
TAP	63	48	4
TAP	63	96	4
HLD	63	192	7	96
TAP	63	240	0
TAP	63	288	0
TAP	64	0	1
TAP	64	0	2
TAP	64	48	2
TAP	64	48	3
TAP	64	96	3
TAP	64	96	4
HLD	64	192	1	96
HLD	64	192	6	96
HLD	65	0	0	96
HLD	65	0	4	96
HLD	65	192	2	96
HLD	65	192	6	96
HLD	66	0	3	96
HLD	66	0	7	96
HLD	66	192	1	96
HLD	66	192	5	96
STR	67	0	0
SCL	67	0	0	96	192	5
TAP	67	192	1
TAP	67	288	1
TAP	68	0	3
HLD	68	0	4	96
TAP	68	96	6
TAP	68	192	0
TAP	68	192	7
BRK	68	288	2
BRK	68	288	5
HLD	69	0	1	192
TAP	69	96	2
TAP	69	144	2
TAP	69	192	2
TAP	69	288	7
TAP	69	336	6
TAP	70	48	3
TAP	70	96	2
TAP	70	192	7
TAP	70	240	7
BRK	70	288	7
HLD	71	0	5	192
TAP	71	96	6
TAP	71	144	6
TAP	71	192	6
TAP	71	288	3
TAP	71	336	2
TAP	72	48	7
TAP	72	96	6
TAP	72	192	3
TAP	72	240	3
TAP	72	288	3
HLD	73	0	6	192
TAP	73	96	5
TAP	73	144	5
TAP	73	192	5
TAP	73	288	0
TAP	73	336	1
TAP	74	48	4
TAP	74	96	5
TAP	74	192	0
TAP	74	240	0
BRK	74	288	0
HLD	75	0	2	192
TAP	75	96	1
TAP	75	144	1
TAP	75	192	1
TAP	75	288	4
TAP	75	336	5
TAP	76	48	0
TAP	76	96	1
TAP	76	144	7
TAP	76	192	6
TAP	76	240	6
BRK	76	288	0
BRK	76	288	7

T_REC_TAP	241
T_REC_BRK	13
T_REC_XTP	0
T_REC_HLD	91
T_REC_XHO	0
T_REC_STR	17
T_REC_BST	0
T_REC_XST	0
T_REC_TTP	0
T_REC_THO	0
T_REC_SLD	17
T_REC_ALL	379
T_NUM_TAP	258
T_NUM_BRK	13
T_NUM_HLD	91
T_NUM_SLD	17
T_NUM_ALL	379
T_JUDGE_TAP	271
T_JUDGE_HLD	216
T_JUDGE_SLD	17
T_JUDGE_ALL	504
TTM_EACHPAIRS	46
TTM_SCR_TAP	129000
TTM_SCR_BRK	33800
TTM_SCR_HLD	91000
TTM_SCR_SLD	25500
TTM_SCR_ALL	279300
TTM_SCR_S	269700
TTM_SCR_SS	278000
TTM_RAT_ACV	10046

