VERSION	0.00.00	1.03.00
FES_MODE	0
BPM_DEF	190.000	190.000	190.000	190.000
MET_DEF	4	4
RESOLUTION	384
CLK_DEF	384
COMPATIBLE_CODE	MA2

BPM	0	0	190.000
MET	0	0	4	4

HLD	5	0	3	96
HLD	5	0	4	96
TAP	5	192	1
TAP	5	192	6
HLD	5	336	5	96
TAP	6	48	4
TAP	6	192	0
TAP	6	192	7
TAP	6	288	7
HLD	7	0	1	96
TAP	7	96	2
TAP	7	192	1
TAP	7	192	5
HLD	7	336	5	96
TAP	8	48	6
TAP	8	192	0
TAP	8	192	1
TAP	8	288	7
HLD	9	0	3	96
HLD	9	0	4	96
TAP	9	192	2
TAP	9	192	5
HLD	9	336	7	96
TAP	10	48	6
TAP	10	192	0
TAP	10	192	2
TAP	10	288	2
HLD	11	0	7	96
TAP	11	96	0
TAP	11	192	0
TAP	11	192	7
HLD	11	336	2	96
TAP	12	48	1
TAP	12	192	0
STR	12	288	6
SCR	12	288	6	96	96	1
HLD	13	192	1	96
TAP	13	288	6
TAP	14	0	2
TAP	14	96	1
TAP	14	96	3
TAP	14	192	2
TAP	14	192	4
TAP	14	288	3
TAP	14	288	5
HLD	15	0	6	96
TAP	15	96	5
HLD	15	192	2	96
TAP	15	288	1
STR	16	0	2
SCR	16	0	2	96	96	5
STR	17	0	6
SI_	17	0	6	96	96	1
HLD	17	192	0	96
TAP	17	288	7
STR	18	0	6
SI_	18	0	6	96	96	1
TAP	18	192	0
TAP	18	288	3
TAP	18	288	4
HLD	19	0	3	192
TAP	19	192	4
TAP	19	288	1
TAP	19	288	3
TAP	20	0	3
HLD	20	0	4	192
TAP	20	96	6
TAP	20	192	0
TAP	21	0	4
HLD	21	96	5	96
TAP	21	192	6
HLD	21	288	1	96
TAP	22	0	2
HLD	22	96	6	96
TAP	22	192	7
TAP	23	0	0
HLD	23	96	7	96
TAP	23	192	0
HLD	23	288	1	96
TAP	24	0	6
TAP	24	96	6
TAP	24	192	2
TAP	24	192	5
TAP	25	0	2
TAP	25	96	2
HLD	25	192	5	96
TAP	25	288	6
TAP	26	0	5
HLD	26	96	2	96
TAP	26	96	4
HLD	26	192	3	96
TAP	26	288	5
HLD	27	0	6	672
TAP	28	0	0
TAP	28	96	0
TAP	28	192	0
STR	28	288	0
SCL	28	288	0	96	288	5
STR	30	288	5
SCL	30	288	5	96	288	2
STR	32	288	1
SI_	32	288	1	96	288	6
HLD	35	0	6	192
HLD	35	192	5	192
STR	36	0	6
SI_	36	0	6	96	96	1
HLD	37	0	7	96
TAP	37	96	0
HLD	37	192	0	192
TAP	37	192	1
TAP	37	288	1
TAP	38	0	2
TAP	38	96	3
TAP	38	192	4
TAP	38	192	5
STR	39	0	2
SCR	39	0	2	96	96	5
TAP	40	0	2
TAP	40	0	3
TAP	40	96	3
TAP	40	96	4
TAP	40	192	4
TAP	40	192	5
HLD	41	0	1	96
TAP	41	96	0
TAP	41	192	1
HLD	41	192	6	96
TAP	41	288	7
TAP	42	0	0
TAP	42	96	0
TAP	42	192	2
TAP	42	192	6
TAP	42	288	1
TAP	42	288	5
TAP	43	0	0
TAP	43	0	7
TAP	43	192	2
TAP	43	192	6
TAP	43	288	2
TAP	43	288	6
TAP	44	0	3
TAP	44	0	5
TAP	44	96	2
TAP	44	96	4
TAP	44	192	3
TAP	44	192	4
TAP	45	0	4
HLD	45	96	6	96
TAP	45	192	3
HLD	45	288	2	96
TAP	46	0	4
TAP	46	96	1
HLD	46	96	6	96
TAP	46	192	2
TAP	47	0	0
HLD	47	96	1	96
TAP	47	192	2
HLD	47	288	6	96
TAP	48	0	7
TAP	48	96	0
TAP	48	192	1
HLD	49	0	2	96
HLD	49	0	5	96
TAP	49	192	1
TAP	49	192	7
TAP	50	0	1
TAP	50	0	5
TAP	50	96	2
TAP	50	96	6
TAP	50	192	1
TAP	50	192	4
TAP	50	288	3
TAP	50	288	6
HLD	51	0	4	96
TAP	51	96	3
TAP	51	192	2
TAP	51	288	1
TAP	52	0	0
TAP	52	96	5
TAP	52	192	6
TAP	52	192	7
TAP	53	0	0
TAP	53	0	5
TAP	53	192	2
TAP	53	192	7
TAP	54	0	0
TAP	54	0	4
TAP	54	192	3
TAP	54	192	7
HLD	55	0	0	96
TAP	55	96	1
HLD	55	192	4	96
TAP	55	288	5
TAP	56	0	2
TAP	56	0	6
TAP	56	96	3
TAP	56	96	5
BRK	56	192	1
TAP	57	0	0
TAP	57	0	5
TAP	57	192	2
TAP	57	192	7
TAP	58	0	0
TAP	58	0	4
TAP	58	192	3
TAP	58	192	7
STR	59	0	2
SCR	59	0	2	96	96	5
STR	59	192	6
SCR	59	192	6	96	96	1
TAP	60	0	6
TAP	60	96	1
BRK	60	192	1
TAP	61	0	0
TAP	61	0	5
TAP	61	192	2
TAP	61	192	7
TAP	62	0	0
TAP	62	0	4
TAP	62	192	3
TAP	62	192	7
HLD	63	0	1	96
TAP	63	0	6
TAP	63	96	3
TAP	63	192	3
HLD	63	192	5	96
TAP	63	288	4
TAP	64	0	1
TAP	64	0	5
TAP	64	96	3
TAP	64	96	7
BRK	64	192	1
BRK	64	192	6
TAP	65	0	0
TAP	65	0	5
TAP	65	192	2
TAP	65	192	7
TAP	66	0	0
TAP	66	0	4
TAP	66	192	3
TAP	66	192	7
HLD	67	0	1	96
TAP	67	96	0
TAP	67	192	2
TAP	67	288	3
HLD	68	0	5	96
TAP	68	96	6
STR	68	192	0
SI_	68	192	0	96	192	3
HLD	69	336	5	96
TAP	70	48	4
TAP	70	192	0
TAP	70	192	7
TAP	70	288	7
HLD	71	0	1	96
TAP	71	96	3
TAP	71	192	1
TAP	71	192	5
HLD	71	336	5	96
TAP	72	48	4
TAP	72	192	0
TAP	72	288	7
HLD	73	0	3	96
HLD	73	0	4	96
TAP	73	192	2
TAP	73	192	5
HLD	73	336	7	96
TAP	74	48	6
TAP	74	192	0
TAP	74	192	2
TAP	74	288	1
HLD	75	0	7	96
TAP	75	96	0
TAP	75	192	0
TAP	75	192	7
TAP	76	0	1
STR	76	96	6
SI_	76	96	6	96	96	1

T_REC_TAP	196
T_REC_BRK	4
T_REC_XTP	0
T_REC_HLD	52
T_REC_XHO	0
T_REC_STR	13
T_REC_BST	0
T_REC_XST	0
T_REC_TTP	0
T_REC_THO	0
T_REC_SLD	13
T_REC_ALL	278
T_NUM_TAP	209
T_NUM_BRK	4
T_NUM_HLD	52
T_NUM_SLD	13
T_NUM_ALL	278
T_JUDGE_TAP	213
T_JUDGE_HLD	126
T_JUDGE_SLD	13
T_JUDGE_ALL	352
TTM_EACHPAIRS	68
TTM_SCR_TAP	104500
TTM_SCR_BRK	10400
TTM_SCR_HLD	52000
TTM_SCR_SLD	19500
TTM_SCR_ALL	186400
TTM_SCR_S	180450
TTM_SCR_SS	186000
TTM_RAT_ACV	10021

