VERSION	0.00.00	1.03.00
FES_MODE	0
BPM_DEF	190.000	190.000	190.000	190.000
MET_DEF	4	4
RESOLUTION	384
CLK_DEF	384
COMPATIBLE_CODE	MA2

BPM	0	0	190.000
MET	0	0	4	4

HLD	5	0	2	96
TAP	5	96	1
TAP	5	192	1
TAP	6	0	1
TAP	6	96	0
TAP	6	192	7
TAP	6	288	7
HLD	7	0	6	96
TAP	7	96	5
TAP	7	192	5
TAP	8	0	5
TAP	8	96	4
TAP	8	192	4
HLD	9	0	0	96
TAP	9	96	1
TAP	9	192	1
TAP	10	0	1
TAP	10	96	6
TAP	10	192	5
TAP	10	288	5
TAP	11	0	0
TAP	11	0	7
TAP	11	96	1
TAP	11	192	1
TAP	12	0	1
TAP	12	96	2
TAP	12	192	3
BRK	12	288	1
BRK	12	288	6
TAP	13	96	7
TAP	13	192	6
HLD	13	288	5	192
TAP	14	96	0
TAP	14	192	0
TAP	15	96	2
TAP	15	192	1
TAP	15	288	2
TAP	16	96	0
TAP	16	96	1
TAP	16	192	0
TAP	16	192	7
HLD	17	0	6	96
HLD	17	192	5	96
HLD	18	0	4	96
TAP	18	192	3
TAP	18	288	2
TAP	18	288	5
HLD	19	0	1	192
HLD	19	192	0	96
TAP	20	0	6
TAP	20	0	7
TAP	20	96	0
BRK	20	192	1
TAP	21	0	2
HLD	21	96	6	96
HLD	21	288	2	96
HLD	22	96	0	96
HLD	22	288	4	96
HLD	23	96	2	96
HLD	23	288	6	96
TAP	24	96	0
TAP	24	96	7
TAP	24	192	1
TAP	24	192	6
TAP	25	0	2
HLD	25	96	0	96
TAP	25	288	1
TAP	25	288	2
TAP	26	0	5
HLD	26	96	7	96
TAP	26	288	5
TAP	26	288	6
TAP	27	0	1
HLD	27	96	2	96
TAP	27	288	0
TAP	28	96	6
TAP	28	192	0
TAP	28	192	7
BRK	28	288	0
BRK	28	288	7
STR	29	96	6
SI_	29	96	6	96	192	2
STR	31	96	5
SI_	31	96	5	96	192	1
STR	33	96	2
SI_	33	96	2	96	192	5
STR	35	96	6
SI_	35	96	6	96	192	1
TAP	37	96	7
TAP	37	192	6
HLD	37	288	5	96
TAP	38	96	0
TAP	38	192	0
TAP	39	96	0
TAP	39	192	1
TAP	39	288	2
TAP	40	96	6
TAP	40	96	7
TAP	40	192	0
TAP	40	192	7
HLD	41	0	6	96
HLD	41	192	5	96
TAP	42	0	4
TAP	42	96	3
TAP	42	192	2
TAP	42	288	0
TAP	42	288	1
TAP	43	0	0
TAP	43	0	7
TAP	43	192	3
TAP	43	192	4
TAP	44	0	1
TAP	44	96	0
TAP	44	96	7
TAP	44	192	6
TAP	45	0	7
HLD	45	96	6	96
HLD	45	288	5	96
TAP	46	96	1
TAP	46	192	0
TAP	47	0	0
HLD	47	96	1	96
HLD	47	288	2	96
TAP	48	96	6
TAP	48	192	7
TAP	49	0	0
TAP	49	0	7
TAP	49	192	1
TAP	49	192	6
TAP	50	0	2
TAP	50	96	3
TAP	50	192	4
TAP	50	288	5
HLD	51	0	6	96
HLD	51	192	7	96
TAP	52	0	0
TAP	52	96	1
TAP	52	192	0
TAP	52	192	7
HLD	53	0	1	96
HLD	53	192	5	96
HLD	54	0	3	96
HLD	54	192	7	96
HLD	55	0	0	192
TAP	56	0	5
TAP	56	96	4
TAP	56	192	3
HLD	57	0	1	96
HLD	57	192	5	96
HLD	58	0	3	96
HLD	58	192	7	96
HLD	59	0	1	192
TAP	60	0	6
TAP	60	96	6
HLD	60	192	7	96
HLD	61	0	1	96
HLD	61	192	5	96
HLD	62	0	3	96
HLD	62	192	7	96
TAP	63	96	6
TAP	63	288	2
TAP	64	96	0
TAP	64	96	1
TAP	64	192	0
TAP	64	192	7
HLD	65	0	1	96
HLD	65	192	5	96
HLD	66	0	3	96
HLD	66	192	7	96
STR	67	0	3
SI_	67	0	3	96	96	7
TAP	68	0	6
TAP	68	96	0
TAP	68	192	1
BRK	68	288	0
BRK	68	288	7
HLD	69	0	2	96
TAP	69	96	1
TAP	69	192	1
TAP	70	0	1
TAP	70	96	0
TAP	70	192	7
TAP	70	288	7
HLD	71	0	6	96
TAP	71	96	5
TAP	71	192	5
TAP	72	0	5
TAP	72	96	4
TAP	72	192	4
HLD	73	0	0	96
TAP	73	96	1
TAP	73	192	1
TAP	74	0	1
TAP	74	96	6
TAP	74	192	5
TAP	74	288	5
TAP	75	0	0
TAP	75	0	7
TAP	75	96	1
TAP	75	192	1
TAP	76	0	1
TAP	76	96	2
TAP	76	192	3
BRK	76	288	1
BRK	76	288	6

T_REC_TAP	137
T_REC_BRK	9
T_REC_XTP	0
T_REC_HLD	49
T_REC_XHO	0
T_REC_STR	5
T_REC_BST	0
T_REC_XST	0
T_REC_TTP	0
T_REC_THO	0
T_REC_SLD	5
T_REC_ALL	205
T_NUM_TAP	142
T_NUM_BRK	9
T_NUM_HLD	49
T_NUM_SLD	5
T_NUM_ALL	205
T_JUDGE_TAP	151
T_JUDGE_HLD	106
T_JUDGE_SLD	5
T_JUDGE_ALL	262
TTM_EACHPAIRS	26
TTM_SCR_TAP	71000
TTM_SCR_BRK	23400
TTM_SCR_HLD	49000
TTM_SCR_SLD	7500
TTM_SCR_ALL	150900
TTM_SCR_S	145500
TTM_SCR_SS	150000
TTM_RAT_ACV	10060

