VERSION	0.00.00	1.03.00
FES_MODE	0
BPM_DEF	190.000	190.000	190.000	190.000
MET_DEF	4	4
RESOLUTION	384
CLK_DEF	384
COMPATIBLE_CODE	MA2

BPM	0	0	190.000
MET	0	0	4	4

TAP	3	0	5
TAP	4	0	5
TAP	5	0	2
TAP	5	0	5
TAP	5	192	4
TAP	6	0	3
TAP	6	192	2
TAP	7	0	2
TAP	7	192	3
TAP	8	0	4
TAP	8	192	5
TAP	9	0	2
TAP	9	0	5
TAP	9	192	4
TAP	10	0	3
TAP	10	192	2
TAP	11	0	0
TAP	11	0	7
TAP	11	192	1
TAP	12	0	2
TAP	13	0	6
STR	13	192	1
SI_	13	192	1	96	96	6
TAP	15	0	5
STR	15	192	2
SI_	15	192	2	96	96	5
TAP	17	0	6
TAP	17	192	1
TAP	18	0	0
STR	18	192	7
SI_	18	192	7	96	96	4
TAP	20	0	4
TAP	20	192	3
TAP	21	0	4
TAP	21	0	5
TAP	21	192	1
TAP	21	192	6
TAP	22	0	7
TAP	22	192	0
TAP	23	0	0
TAP	23	0	7
TAP	23	192	0
TAP	23	192	1
TAP	24	0	2
TAP	24	0	3
TAP	24	192	3
TAP	24	192	4
TAP	25	0	7
TAP	25	192	7
TAP	26	0	0
TAP	26	192	0
TAP	27	0	6
TAP	27	192	7
TAP	28	0	6
TAP	28	192	7
BRK	28	288	7
STR	29	0	6
SI_	29	0	6	96	192	3
HLD	31	0	3	192
HLD	32	0	2	192
STR	33	0	1
SI_	33	0	1	96	192	6
HLD	35	0	6	192
STR	36	0	6
SI_	36	0	6	96	96	1
TAP	37	192	0
TAP	37	192	1
TAP	38	0	6
TAP	38	192	5
TAP	39	0	6
TAP	39	192	6
TAP	39	192	7
TAP	40	0	1
TAP	40	192	2
TAP	41	0	1
TAP	41	192	6
TAP	42	0	1
TAP	42	0	5
TAP	42	192	1
TAP	42	192	5
TAP	43	0	7
TAP	43	192	0
HLD	44	0	1	192
TAP	45	0	6
TAP	45	192	6
TAP	45	192	7
TAP	46	0	0
TAP	46	192	1
TAP	47	0	0
TAP	47	192	0
TAP	47	192	1
TAP	48	0	7
TAP	48	192	6
STR	49	0	5
SI_	49	0	5	96	192	1
TAP	51	0	1
TAP	51	192	0
TAP	52	0	6
TAP	52	96	6
BRK	52	192	6
TAP	53	0	1
TAP	53	192	6
TAP	54	0	3
TAP	54	192	4
TAP	55	192	2
TAP	56	192	5
TAP	57	0	0
TAP	57	0	5
TAP	57	192	2
TAP	57	192	7
TAP	58	0	0
TAP	58	0	5
TAP	58	192	2
TAP	58	192	7
HLD	59	192	6	192
TAP	60	192	1
TAP	61	0	1
TAP	61	192	6
TAP	62	0	3
TAP	62	192	4
TAP	63	0	3
TAP	63	192	4
BRK	64	192	1
BRK	64	192	6
TAP	65	0	1
TAP	65	192	6
TAP	66	0	3
TAP	66	192	4
HLD	67	0	1	192
TAP	68	0	5
TAP	68	96	6
TAP	68	192	7
STR	68	288	0
SI_	68	288	0	96	192	3
TAP	70	0	3
TAP	70	192	4
TAP	71	0	5
TAP	71	192	4
TAP	72	0	3
TAP	73	0	6
TAP	73	192	7
TAP	74	0	0
TAP	75	0	1
TAP	75	192	0
TAP	76	0	7
TAP	76	192	7

T_REC_TAP	120
T_REC_BRK	4
T_REC_XTP	0
T_REC_HLD	6
T_REC_XHO	0
T_REC_STR	8
T_REC_BST	0
T_REC_XST	0
T_REC_TTP	0
T_REC_THO	0
T_REC_SLD	8
T_REC_ALL	146
T_NUM_TAP	128
T_NUM_BRK	4
T_NUM_HLD	6
T_NUM_SLD	8
T_NUM_ALL	146
T_JUDGE_TAP	132
T_JUDGE_HLD	24
T_JUDGE_SLD	8
T_JUDGE_ALL	164
TTM_EACHPAIRS	20
TTM_SCR_TAP	64000
TTM_SCR_BRK	10400
TTM_SCR_HLD	6000
TTM_SCR_SLD	12000
TTM_SCR_ALL	92400
TTM_SCR_S	89250
TTM_SCR_SS	92000
TTM_RAT_ACV	10043

