VERSION	0.00.00	1.03.00
FES_MODE	0
BPM_DEF	171.000	171.000	171.000	171.000
MET_DEF	4	4
RESOLUTION	384
CLK_DEF	384
COMPATIBLE_CODE	MA2

BPM	0	0	171.000
MET	0	0	4	4

HLD	3	0	4	72
HLD	3	72	5	72
HLD	3	144	6	96
TAP	3	240	5
TAP	3	288	5
TAP	3	336	4
HLD	4	0	3	72
HLD	4	72	2	72
TAP	4	144	1
TAP	4	240	6
TAP	4	240	7
TAP	4	288	0
TAP	4	288	5
HLD	5	0	3	72
HLD	5	72	2	72
HLD	5	144	1	96
TAP	5	240	2
TAP	5	288	2
TAP	5	336	3
HLD	6	0	4	72
HLD	6	72	5	72
TAP	6	144	6
TAP	6	240	0
TAP	6	240	1
TAP	6	288	2
TAP	6	288	7
HLD	7	0	5	72
HLD	7	72	6	72
HLD	7	144	7	96
TAP	7	240	5
TAP	7	288	4
TAP	7	336	3
HLD	8	0	2	72
HLD	8	72	1	72
TAP	8	144	0
TAP	8	240	4
TAP	8	240	5
TAP	8	288	3
TAP	8	288	6
HLD	9	0	2	72
HLD	9	72	1	72
HLD	9	144	0	96
TAP	9	240	2
TAP	9	288	3
TAP	9	336	4
HLD	10	0	5	72
HLD	10	72	6	72
TAP	10	144	7
TAP	10	240	2
TAP	10	240	3
TAP	10	288	1
TAP	10	288	4
HLD	11	0	0	72
HLD	11	72	6	72
STR	11	144	4
SI_	11	144	4	96	48	0
TAP	11	240	5
TAP	11	288	5
HLD	12	0	7	72
HLD	12	72	1	72
STR	12	144	3
SI_	12	144	3	96	48	7
TAP	12	240	2
TAP	12	288	2
HLD	13	0	0	72
HLD	13	72	6	72
STR	13	144	4
SI_	13	144	4	96	48	0
TAP	13	240	5
TAP	13	288	5
HLD	14	0	7	72
HLD	14	72	1	72
STR	14	144	3
SCR	14	144	3	96	96	1
HLD	15	0	0	72
HLD	15	72	6	72
STR	15	144	4
SI_	15	144	4	96	48	0
TAP	15	240	6
TAP	15	288	3
HLD	16	0	7	72
HLD	16	72	1	72
STR	16	144	3
SI_	16	144	3	96	48	7
TAP	16	240	1
TAP	16	288	4
HLD	17	0	0	72
HLD	17	72	6	72
STR	17	144	4
SI_	17	144	4	96	48	0
TAP	17	240	6
TAP	17	288	3
TAP	17	336	3
STR	18	0	1
SI_	18	0	1	96	48	4
TAP	18	96	1
STR	18	96	5
SI_	18	96	5	96	48	0
STR	18	192	2
SI_	18	192	2	96	48	7
TAP	18	192	5
TAP	18	288	2
TAP	18	288	6
HLD	19	0	2	72
TAP	19	72	3
STR	19	96	1
SI_	19	96	1	96	48	4
STR	19	144	4
SUL	19	144	4	96	48	7
TAP	19	240	6
TAP	19	288	5
HLD	20	0	5	72
TAP	20	72	4
STR	20	96	6
SI_	20	96	6	96	48	3
STR	20	144	3
SUR	20	144	3	96	48	0
TAP	20	240	1
TAP	20	288	2
HLD	21	0	2	72
TAP	21	72	3
STR	21	96	1
SI_	21	96	1	96	48	4
STR	21	144	4
SUL	21	144	4	96	48	7
TAP	21	240	6
TAP	21	288	5
TAP	21	336	5
STR	22	0	1
SI_	22	0	1	96	48	4
TAP	22	96	1
STR	22	96	5
SI_	22	96	5	96	48	0
STR	22	192	2
SI_	22	192	2	96	48	7
TAP	22	192	5
TAP	22	288	2
BRK	22	288	6
HLD	23	0	5	72
TAP	23	72	4
STR	23	96	6
SI_	23	96	6	96	48	2
STR	23	144	2
SUR	23	144	2	96	48	7
TAP	23	240	0
TAP	23	288	1
HLD	24	0	2	72
TAP	24	72	3
STR	24	96	1
SI_	24	96	1	96	48	5
STR	24	144	5
SUL	24	144	5	96	48	0
TAP	24	240	7
TAP	24	288	6
HLD	25	0	5	72
TAP	25	72	4
STR	25	96	6
SI_	25	96	6	96	48	2
STR	25	144	2
SUR	25	144	2	96	48	7
TAP	25	240	0
TAP	25	288	1
TAP	25	336	1
STR	26	0	6
SI_	26	0	6	96	48	2
STR	26	96	1
SI_	26	96	1	96	48	5
TAP	26	96	6
TAP	26	192	1
STR	26	192	7
SI_	26	192	7	96	48	3
BRK	26	288	0
TAP	26	288	7
HLD	27	0	2	72
TAP	27	72	3
TAP	27	96	2
TAP	27	144	1
TAP	27	144	4
TAP	27	240	7
TAP	27	288	0
TAP	27	288	6
HLD	28	0	5	72
TAP	28	72	4
TAP	28	96	5
TAP	28	144	3
TAP	28	144	6
TAP	28	240	1
TAP	28	264	0
TAP	28	288	2
TAP	28	312	7
TAP	28	336	1
TAP	28	360	3
HLD	29	0	2	72
TAP	29	72	3
TAP	29	96	2
TAP	29	144	1
TAP	29	144	4
TAP	29	240	0
TAP	29	288	1
TAP	29	288	7
HLD	30	0	5	72
TAP	30	72	4
TAP	30	96	5
TAP	30	144	3
TAP	30	144	6
TAP	30	240	7
TAP	30	264	0
TAP	30	288	6
TAP	30	312	1
TAP	30	336	7
TAP	30	360	0
HLD	31	0	6	72
TAP	31	72	7
TAP	31	96	6
TAP	31	144	0
TAP	31	144	5
TAP	31	240	3
TAP	31	288	2
TAP	31	288	4
HLD	32	0	1	72
TAP	32	72	0
TAP	32	96	1
TAP	32	144	2
TAP	32	144	7
TAP	32	240	6
TAP	32	264	7
TAP	32	288	5
TAP	32	312	0
TAP	32	336	6
TAP	32	360	4
HLD	33	0	5	72
TAP	33	72	7
TAP	33	96	6
TAP	33	144	0
TAP	33	144	5
TAP	33	240	4
TAP	33	288	3
TAP	33	288	5
HLD	34	0	1	72
TAP	34	72	0
TAP	34	96	1
TAP	34	144	2
TAP	34	144	7
TAP	34	240	0
TAP	34	264	7
TAP	34	288	1
TAP	34	312	6
TAP	34	336	0
TAP	34	360	7
HLD	35	0	1	72
TAP	35	72	0
STR	35	96	1
SCR	35	96	1	96	72	4
STR	35	144	3
SCR	35	144	3	96	72	6
STR	35	192	5
SCR	35	192	5	96	72	0
TAP	35	240	0
TAP	35	288	0
HLD	36	0	6	72
TAP	36	72	7
STR	36	96	6
SCL	36	96	6	96	72	3
STR	36	144	4
SCL	36	144	4	96	72	1
STR	36	192	2
SCL	36	192	2	96	72	7
TAP	36	240	7
TAP	36	288	7
HLD	37	0	1	72
TAP	37	72	0
STR	37	96	1
SCR	37	96	1	96	72	4
STR	37	144	3
SCR	37	144	3	96	72	6
STR	37	192	5
SCR	37	192	5	96	72	0
TAP	37	240	0
TAP	37	288	0
STR	38	0	4
SUL	38	0	4	96	96	3
STR	38	96	3
SCL	38	96	3	96	144	4
TAP	38	96	4
HLD	39	0	2	72
TAP	39	72	3
STR	39	96	2
SCL	39	96	2	96	72	7
STR	39	144	0
SCL	39	144	0	96	72	5
STR	39	192	6
SCL	39	192	6	96	72	3
TAP	39	240	3
TAP	39	288	3
HLD	40	0	5	72
TAP	40	72	4
STR	40	96	5
SCR	40	96	5	96	72	0
STR	40	144	7
SCR	40	144	7	96	72	2
STR	40	192	1
SCR	40	192	1	96	72	4
TAP	40	240	4
TAP	40	288	4
HLD	41	0	2	72
TAP	41	72	3
STR	41	96	2
SCL	41	96	2	96	72	7
STR	41	144	0
SCL	41	144	0	96	72	5
STR	41	192	6
SCL	41	192	6	96	72	3
TAP	41	240	3
TAP	41	288	3
STR	42	0	6
SI_	42	0	6	96	48	2
TAP	42	96	6
TAP	42	96	7
STR	42	192	0
SI_	42	192	0	96	48	4
STR	42	192	1
SI_	42	192	1	96	48	5
TAP	42	288	0
TAP	42	288	1
TAP	43	0	2
TAP	43	24	3
TAP	43	48	2
TAP	43	72	3
TAP	43	96	1
TAP	43	120	4
TAP	43	144	1
TAP	43	168	4
TAP	43	192	0
TAP	43	216	6
TAP	43	240	0
TAP	43	264	6
TAP	43	288	1
TAP	43	312	0
TAP	43	336	2
TAP	44	0	5
TAP	44	24	4
TAP	44	48	5
TAP	44	72	4
TAP	44	96	6
TAP	44	120	3
TAP	44	144	6
TAP	44	168	3
TAP	44	192	7
TAP	44	216	1
TAP	44	240	7
TAP	44	264	1
TAP	44	288	6
TAP	44	312	7
TAP	44	336	5
TAP	45	0	2
TAP	45	24	3
TAP	45	48	1
TAP	45	72	4
TAP	45	96	0
TAP	45	144	5
TAP	45	168	4
TAP	45	192	6
TAP	45	216	3
TAP	45	240	7
TAP	45	288	3
TAP	45	312	4
TAP	45	336	2
TAP	45	360	5
STR	46	0	1
SI_	46	0	1	96	48	4
TAP	46	96	1
STR	46	96	5
SI_	46	96	5	96	48	0
STR	46	192	2
SI_	46	192	2	96	48	7
TAP	46	192	5
TAP	46	288	2
BRK	46	288	6
TAP	47	0	1
TAP	47	24	0
TAP	47	48	1
TAP	47	72	0
TAP	47	96	2
TAP	47	120	7
TAP	47	144	2
TAP	47	168	7
TAP	47	192	0
TAP	47	192	1
TAP	47	240	2
TAP	47	240	7
TAP	47	288	3
TAP	47	288	6
TAP	48	0	6
TAP	48	24	7
TAP	48	48	6
TAP	48	72	7
TAP	48	96	5
TAP	48	120	0
TAP	48	144	5
TAP	48	168	0
TAP	48	192	6
TAP	48	192	7
TAP	48	240	0
TAP	48	240	5
TAP	48	288	1
TAP	48	288	4
TAP	49	0	3
TAP	49	0	4
STR	49	96	0
SCR	49	96	0	96	48	3
STR	49	96	7
SCL	49	96	7	96	48	4
TAP	49	144	1
TAP	49	144	6
TAP	49	192	0
TAP	49	192	7
TAP	49	288	2
TAP	49	288	5
TAP	49	336	0
TAP	49	336	4
TAP	50	0	1
TAP	50	0	5
TAP	50	48	2
TAP	50	48	6
STR	50	96	3
SCL	50	96	3	96	48	0
STR	50	96	7
SCL	50	96	7	96	48	4
TAP	50	144	0
TAP	50	144	4
BRK	50	288	3
BRK	50	288	4
STR	51	0	1
SI_	51	0	1	96	48	4
TAP	51	48	1
TAP	51	96	7
TAP	51	144	7
STR	51	192	6
SI_	51	192	6	96	48	3
TAP	51	240	6
TAP	51	288	0
STR	51	336	0
SCL	51	336	0	96	72	5
STR	52	0	6
SCL	52	0	6	96	144	0
STR	52	48	4
SUR	52	48	4	96	96	0
TAP	52	96	4
TAP	52	288	1
TAP	52	288	7
TAP	53	0	3
TAP	53	0	4
TAP	53	48	6
TAP	53	72	4
TAP	53	96	6
TAP	53	144	0
TAP	53	192	7
TAP	53	240	1
TAP	53	264	3
TAP	53	288	1
TAP	53	336	7
TAP	54	0	0
TAP	54	48	6
TAP	54	96	4
TAP	54	144	5
STR	54	192	0
SI_	54	192	0	96	48	3
STR	54	192	4
SI_	54	192	4	96	48	7
TAP	54	288	0
TAP	54	288	4
STR	55	0	6
SI_	55	0	6	96	48	3
TAP	55	48	6
TAP	55	96	0
TAP	55	144	0
STR	55	192	1
SI_	55	192	1	96	48	4
TAP	55	240	1
TAP	55	288	7
STR	55	336	7
SCR	55	336	7	96	72	2
STR	56	0	1
SCR	56	0	1	96	144	7
STR	56	48	3
SUL	56	48	3	96	96	7
TAP	56	96	3
TAP	56	288	0
TAP	56	288	6
TAP	57	0	3
TAP	57	0	4
TAP	57	48	1
TAP	57	72	3
TAP	57	96	1
TAP	57	144	7
TAP	57	192	0
TAP	57	240	6
TAP	57	264	4
TAP	57	288	6
TAP	57	336	0
TAP	58	0	7
TAP	58	48	1
TAP	58	96	5
TAP	58	144	3
BRK	58	192	1
BRK	58	192	5
BRK	58	288	3
BRK	58	288	7
TAP	59	0	7
STR	59	48	1
SI_	59	48	1	96	24	4
TAP	59	96	0
STR	59	144	6
SI_	59	144	6	96	24	3
TAP	59	192	7
STR	59	240	1
SI_	59	240	1	96	24	4
TAP	59	288	0
STR	59	336	6
SI_	59	336	6	96	24	3
TAP	60	0	7
STR	60	48	1
SCR	60	48	1	96	24	4
TAP	60	96	0
STR	60	144	6
SCL	60	144	6	96	24	3
TAP	60	192	7
STR	60	240	1
SCR	60	240	1	96	24	4
TAP	60	288	0
STR	60	336	6
SCL	60	336	6	96	24	3
TAP	61	0	7
STR	61	48	1
SI_	61	48	1	96	24	5
TAP	61	96	0
STR	61	144	6
SI_	61	144	6	96	24	2
TAP	61	192	7
STR	61	240	1
SI_	61	240	1	96	24	5
TAP	61	288	0
STR	61	336	6
SI_	61	336	6	96	24	2
TAP	62	0	7
TAP	62	48	1
TAP	62	96	0
TAP	62	144	6
TAP	62	192	1
TAP	62	192	5
STR	62	288	3
SCL	62	288	3	96	48	0
STR	62	288	7
SCL	62	288	7	96	48	4
STR	63	0	3
SUR	63	0	3	96	48	7
STR	63	0	7
SUR	63	0	7	96	48	3
STR	63	96	3
SCL	63	96	3	96	48	0
STR	63	96	7
SCL	63	96	7	96	48	4
TAP	63	192	3
TAP	63	192	7
STR	63	288	0
SCR	63	288	0	96	48	3
STR	63	288	4
SCR	63	288	4	96	48	7
STR	64	0	0
SUL	64	0	0	96	48	4
STR	64	0	4
SUL	64	0	4	96	48	0
STR	64	96	0
SCR	64	96	0	96	48	3
STR	64	96	4
SCR	64	96	4	96	48	7
BRK	64	192	0
BRK	64	192	4
STR	64	288	2
SCL	64	288	2	96	48	7
STR	64	288	6
SCL	64	288	6	96	48	3
TAP	65	0	2
TAP	65	0	6
STR	65	144	1
SCR	65	144	1	96	48	4
STR	65	144	5
SCR	65	144	5	96	48	0
TAP	65	192	1
TAP	65	192	5
TAP	65	336	0
TAP	65	336	4
TAP	66	0	3
TAP	66	0	7
TAP	66	48	2
TAP	66	48	6
TAP	66	96	1
TAP	66	96	5
TAP	66	144	0
TAP	66	144	4
STR	66	192	3
SI_	66	192	3	96	48	6
STR	66	192	7
SI_	66	192	7	96	48	2
BRK	66	288	3
BRK	66	288	7
HLD	67	0	5	72
TAP	67	72	4
TAP	67	96	6
HLD	67	144	0	96
TAP	67	240	1
TAP	67	288	7
TAP	67	336	6
HLD	68	0	2	72
TAP	68	72	3
TAP	68	96	1
HLD	68	144	7	96
TAP	68	240	6
TAP	68	288	0
TAP	68	288	5
HLD	69	0	6	72
TAP	69	72	7
TAP	69	96	5
HLD	69	144	3	96
TAP	69	240	2
TAP	69	288	4
TAP	69	336	5
HLD	70	0	1	72
TAP	70	72	0
TAP	70	96	2
HLD	70	144	4	96
TAP	70	240	3
TAP	70	288	2
TAP	70	288	5
TAP	70	336	1
TAP	70	336	6

T_REC_TAP	361
T_REC_BRK	13
T_REC_XTP	0
T_REC_HLD	62
T_REC_XHO	0
T_REC_STR	100
T_REC_BST	0
T_REC_XST	0
T_REC_TTP	0
T_REC_THO	0
T_REC_SLD	100
T_REC_ALL	636
T_NUM_TAP	461
T_NUM_BRK	13
T_NUM_HLD	62
T_NUM_SLD	100
T_NUM_ALL	636
T_JUDGE_TAP	474
T_JUDGE_HLD	124
T_JUDGE_SLD	100
T_JUDGE_ALL	698
TTM_EACHPAIRS	84
TTM_SCR_TAP	230500
TTM_SCR_BRK	33800
TTM_SCR_HLD	62000
TTM_SCR_SLD	150000
TTM_SCR_ALL	476300
TTM_SCR_S	460750
TTM_SCR_SS	475000
TTM_RAT_ACV	10027

