VERSION	0.00.00	1.03.00
FES_MODE	0
BPM_DEF	171.000	171.000	171.000	171.000
MET_DEF	4	4
RESOLUTION	384
CLK_DEF	384
COMPATIBLE_CODE	MA2

BPM	0	0	171.000
MET	0	0	4	4

STR	3	0	3
SI_	3	0	3	96	288	6
TAP	3	192	1
TAP	3	288	1
STR	4	0	4
SI_	4	0	4	96	288	1
TAP	4	192	6
TAP	4	288	6
STR	5	0	7
SI_	5	0	7	96	288	2
TAP	5	192	0
TAP	5	288	0
STR	6	0	0
SI_	6	0	0	96	288	5
TAP	6	192	7
TAP	6	288	7
STR	7	0	4
SI_	7	0	4	96	288	1
TAP	7	192	6
TAP	7	288	6
STR	8	0	3
SI_	8	0	3	96	288	6
TAP	8	192	1
TAP	8	288	1
STR	9	0	0
SI_	9	0	0	96	288	5
TAP	9	192	7
TAP	9	288	7
STR	10	0	7
SI_	10	0	7	96	288	2
TAP	10	192	0
TAP	10	288	0
TAP	11	0	1
TAP	11	72	2
TAP	11	144	1
TAP	11	240	0
TAP	11	288	0
TAP	11	336	7
TAP	12	0	6
TAP	12	72	5
TAP	12	144	6
TAP	12	240	7
TAP	12	288	7
TAP	12	336	0
TAP	13	0	1
TAP	13	72	2
TAP	13	144	1
TAP	13	240	0
TAP	13	288	0
TAP	13	336	7
TAP	14	0	4
TAP	14	0	7
TAP	14	96	2
TAP	14	96	5
TAP	14	192	0
TAP	14	192	3
TAP	14	288	1
TAP	14	288	6
TAP	15	0	2
TAP	15	72	1
TAP	15	144	2
TAP	15	240	3
TAP	15	288	3
TAP	15	336	4
TAP	16	0	5
TAP	16	72	6
TAP	16	144	5
TAP	16	240	4
TAP	16	288	4
TAP	16	336	3
TAP	17	0	2
TAP	17	72	1
TAP	17	144	2
TAP	17	240	3
TAP	17	288	3
TAP	17	336	4
TAP	18	0	0
TAP	18	0	4
TAP	18	96	2
TAP	18	96	6
TAP	18	192	3
TAP	18	192	7
TAP	18	288	1
TAP	18	288	5
TAP	19	0	0
TAP	19	0	7
TAP	19	72	5
TAP	19	72	6
TAP	19	144	3
TAP	19	144	4
TAP	19	240	2
TAP	19	288	3
TAP	19	336	2
TAP	20	0	3
TAP	20	72	5
TAP	20	72	6
TAP	20	144	0
TAP	20	144	7
TAP	20	240	6
TAP	20	288	7
TAP	20	336	6
TAP	21	0	7
TAP	21	72	1
TAP	21	72	2
TAP	21	144	3
TAP	21	144	4
TAP	21	240	5
TAP	21	288	4
TAP	21	336	5
TAP	22	0	4
TAP	22	96	3
TAP	22	96	4
BRK	22	192	0
TAP	22	192	5
TAP	22	288	1
BRK	22	288	7
TAP	23	0	0
TAP	23	0	7
TAP	23	72	1
TAP	23	72	2
TAP	23	144	3
TAP	23	144	4
TAP	23	240	5
TAP	23	288	4
TAP	23	336	5
TAP	24	0	4
TAP	24	72	1
TAP	24	72	2
TAP	24	144	0
TAP	24	144	7
TAP	24	240	1
TAP	24	288	0
TAP	24	336	1
TAP	25	0	0
TAP	25	72	5
TAP	25	72	6
TAP	25	144	3
TAP	25	144	4
TAP	25	240	2
TAP	25	288	3
TAP	25	336	2
TAP	26	0	3
TAP	26	96	2
TAP	26	96	3
BRK	26	192	2
BRK	26	192	7
BRK	26	288	0
BRK	26	288	6
TAP	27	0	7
TAP	27	48	6
TAP	27	72	7
STR	27	144	5
SI_	27	144	5	96	48	1
TAP	28	0	0
TAP	28	48	1
TAP	28	72	0
STR	28	144	2
SI_	28	144	2	96	48	6
TAP	29	0	4
TAP	29	48	5
TAP	29	72	4
STR	29	144	6
SI_	29	144	6	96	48	2
TAP	30	0	3
TAP	30	48	2
TAP	30	72	3
STR	30	144	1
SI_	30	144	1	96	48	5
STR	31	0	1
SI_	31	0	1	96	48	6
STR	31	192	5
SI_	31	192	5	96	48	2
STR	32	0	7
SI_	32	0	7	96	48	2
STR	32	192	3
SI_	32	192	3	96	48	6
STR	33	0	6
SI_	33	0	6	96	48	1
STR	33	192	2
SI_	33	192	2	96	48	6
STR	34	0	0
SI_	34	0	0	96	48	5
STR	34	192	4
SI_	34	192	4	96	48	1
TAP	35	0	7
TAP	35	48	3
TAP	35	72	2
TAP	35	96	3
TAP	35	144	1
TAP	35	240	7
TAP	35	288	7
TAP	36	0	0
TAP	36	48	4
TAP	36	72	5
TAP	36	96	4
TAP	36	144	6
TAP	36	240	0
TAP	36	288	0
TAP	37	0	4
TAP	37	48	0
TAP	37	72	1
TAP	37	96	0
TAP	37	144	2
TAP	37	240	4
TAP	37	288	4
TAP	38	0	3
TAP	38	48	7
TAP	38	72	6
TAP	38	96	7
TAP	38	144	5
TAP	38	240	3
TAP	38	288	3
TAP	39	0	7
TAP	39	48	3
TAP	39	72	2
TAP	39	96	3
TAP	39	144	1
TAP	39	240	7
TAP	39	288	7
TAP	40	0	0
TAP	40	48	4
TAP	40	72	5
TAP	40	96	4
TAP	40	144	6
TAP	40	240	0
TAP	40	288	0
TAP	41	0	5
TAP	41	48	3
TAP	41	72	4
TAP	41	96	3
TAP	41	144	2
TAP	41	240	6
TAP	41	288	6
TAP	42	0	2
TAP	42	96	5
TAP	42	192	6
TAP	42	192	7
TAP	42	288	0
TAP	42	288	7
TAP	43	0	2
TAP	43	48	0
TAP	43	96	2
TAP	43	144	1
TAP	43	192	2
TAP	43	240	0
TAP	43	288	0
TAP	43	288	7
TAP	44	0	5
TAP	44	48	7
TAP	44	96	5
TAP	44	144	6
TAP	44	192	5
TAP	44	240	7
TAP	44	288	0
TAP	44	288	7
TAP	45	0	6
TAP	45	48	0
TAP	45	96	4
TAP	45	144	3
TAP	45	192	7
TAP	45	240	0
TAP	45	288	7
TAP	45	336	6
TAP	46	0	0
TAP	46	0	7
TAP	46	96	1
TAP	46	96	2
TAP	46	192	3
TAP	46	192	4
TAP	46	288	5
TAP	46	288	6
TAP	47	0	0
TAP	47	48	1
TAP	47	96	2
TAP	47	144	3
TAP	47	192	2
TAP	47	240	0
TAP	47	240	1
BRK	47	288	0
BRK	47	288	7
TAP	48	0	7
TAP	48	48	6
TAP	48	96	5
TAP	48	144	4
TAP	48	192	5
TAP	48	240	6
TAP	48	240	7
BRK	48	288	0
BRK	48	288	7
TAP	49	0	1
TAP	49	96	5
TAP	49	144	6
TAP	49	192	5
TAP	49	288	7
TAP	49	336	7
BRK	50	0	0
TAP	50	0	4
TAP	50	48	3
BRK	50	48	7
TAP	50	96	2
BRK	50	96	6
TAP	50	144	1
BRK	50	144	5
TAP	50	192	0
BRK	50	192	4
TAP	50	288	1
TAP	50	288	6
TAP	51	0	0
TAP	51	96	4
TAP	51	144	1
TAP	51	192	7
TAP	51	240	6
TAP	51	288	6
TAP	51	288	7
TAP	51	336	0
TAP	52	0	1
TAP	52	48	0
TAP	52	48	1
TAP	52	96	7
TAP	52	144	3
TAP	52	192	5
TAP	52	240	6
TAP	52	288	7
TAP	53	0	0
TAP	53	0	7
TAP	53	144	3
TAP	53	144	6
TAP	53	192	0
TAP	53	192	5
TAP	53	336	1
TAP	53	336	4
TAP	54	0	2
TAP	54	0	7
TAP	54	48	0
TAP	54	96	0
TAP	54	96	1
TAP	54	144	7
TAP	54	192	0
TAP	54	192	7
TAP	54	288	2
TAP	54	288	5
TAP	55	0	1
TAP	55	0	6
TAP	55	96	0
TAP	55	144	1
TAP	55	192	0
TAP	55	288	7
TAP	55	336	7
TAP	56	0	6
TAP	56	48	5
TAP	56	96	4
TAP	56	144	5
TAP	56	192	5
TAP	56	192	6
TAP	56	240	7
TAP	56	288	0
TAP	56	288	7
TAP	57	0	2
TAP	57	0	5
TAP	57	144	3
TAP	57	144	7
TAP	57	192	1
TAP	57	192	5
TAP	57	336	0
TAP	57	336	4
TAP	58	0	2
TAP	58	0	6
TAP	58	48	7
TAP	58	96	0
TAP	58	144	0
TAP	58	144	2
TAP	58	192	1
TAP	58	192	7
BRK	58	288	0
BRK	58	288	7
TAP	59	0	1
TAP	59	0	6
TAP	59	96	3
TAP	59	144	6
TAP	59	192	0
TAP	59	240	1
TAP	59	288	0
TAP	59	288	1
TAP	59	336	7
TAP	60	0	6
TAP	60	48	6
TAP	60	48	7
TAP	60	96	0
TAP	60	144	1
TAP	60	192	0
TAP	60	240	7
TAP	60	288	0
TAP	60	288	7
TAP	61	0	2
TAP	61	0	5
TAP	61	144	0
TAP	61	144	4
TAP	61	192	2
TAP	61	192	6
TAP	61	288	3
TAP	61	288	4
TAP	62	0	0
TAP	62	0	1
TAP	62	96	7
TAP	62	144	5
TAP	62	144	7
TAP	62	192	0
TAP	62	192	6
TAP	62	288	0
TAP	62	288	7
BRK	63	0	1
BRK	63	0	2
BRK	63	96	5
BRK	63	96	6
BRK	63	192	2
BRK	63	192	3
BRK	63	288	4
BRK	63	288	5
BRK	64	0	0
BRK	64	0	7
TAP	64	48	1
TAP	64	96	2
TAP	64	144	3
BRK	64	192	2
TAP	64	288	2
TAP	64	288	5
TAP	65	0	0
TAP	65	0	7
TAP	65	144	1
TAP	65	192	1
TAP	65	336	5
TAP	66	0	4
TAP	66	48	5
TAP	66	96	4
TAP	66	144	5
TAP	66	192	1
TAP	66	216	0
TAP	66	240	1
TAP	66	288	0
TAP	66	288	7
TAP	67	0	7
TAP	67	72	2
TAP	67	96	1
TAP	67	144	1
TAP	67	240	7
TAP	67	288	7
TAP	68	0	0
TAP	68	72	5
TAP	68	96	6
TAP	68	144	6
TAP	68	240	0
TAP	68	288	0
TAP	69	0	4
TAP	69	72	1
TAP	69	96	2
TAP	69	144	2
TAP	69	240	4
TAP	69	288	4
TAP	70	0	3
TAP	70	72	6
TAP	70	96	5
TAP	70	144	5
TAP	70	240	3
TAP	70	288	3

T_REC_TAP	396
T_REC_BRK	28
T_REC_XTP	0
T_REC_HLD	0
T_REC_XHO	0
T_REC_STR	20
T_REC_BST	0
T_REC_XST	0
T_REC_TTP	0
T_REC_THO	0
T_REC_SLD	20
T_REC_ALL	464
T_NUM_TAP	416
T_NUM_BRK	28
T_NUM_HLD	0
T_NUM_SLD	20
T_NUM_ALL	464
T_JUDGE_TAP	444
T_JUDGE_HLD	0
T_JUDGE_SLD	20
T_JUDGE_ALL	464
TTM_EACHPAIRS	87
TTM_SCR_TAP	208000
TTM_SCR_BRK	72800
TTM_SCR_HLD	0
TTM_SCR_SLD	30000
TTM_SCR_ALL	310800
TTM_SCR_S	298800
TTM_SCR_SS	308000
TTM_RAT_ACV	10090

