VERSION	0.00.00	1.03.00
FES_MODE	0
BPM_DEF	171.000	171.000	171.000	171.000
MET_DEF	4	4
RESOLUTION	384
CLK_DEF	384
COMPATIBLE_CODE	MA2

BPM	0	0	171.000
MET	0	0	4	4

TAP	3	0	0
HLD	3	0	5	1056
TAP	3	96	1
TAP	3	192	0
TAP	3	288	1
TAP	4	0	2
TAP	4	96	1
TAP	4	192	2
TAP	4	288	1
TAP	5	0	0
TAP	5	96	1
TAP	5	192	0
TAP	5	288	1
TAP	6	0	0
TAP	6	96	7
TAP	6	192	6
TAP	6	288	5
HLD	7	0	1	672
TAP	7	0	7
TAP	7	96	6
TAP	7	192	7
TAP	7	288	6
TAP	8	0	5
TAP	8	96	6
TAP	8	192	5
TAP	8	288	6
TAP	9	0	0
HLD	9	0	5	672
TAP	9	96	1
TAP	9	192	0
TAP	9	288	1
TAP	10	0	2
TAP	10	96	1
TAP	10	192	2
TAP	10	288	1
TAP	11	0	6
TAP	11	0	7
TAP	11	96	0
TAP	11	192	1
TAP	11	288	2
TAP	12	0	1
TAP	12	0	2
TAP	12	96	3
TAP	12	192	1
TAP	12	192	2
TAP	12	288	3
TAP	13	0	5
TAP	13	0	6
TAP	13	96	4
TAP	13	192	5
TAP	13	288	6
TAP	14	0	0
TAP	14	0	7
TAP	14	96	6
TAP	14	192	5
TAP	14	288	7
TAP	15	0	1
TAP	15	0	6
TAP	15	96	2
TAP	15	192	3
TAP	15	288	4
TAP	16	0	2
TAP	16	96	3
TAP	16	96	4
TAP	16	192	2
TAP	16	288	3
TAP	16	288	4
TAP	17	0	1
TAP	17	0	2
TAP	17	96	3
TAP	17	192	4
TAP	17	288	5
TAP	17	288	6
TAP	18	0	6
TAP	18	96	5
TAP	18	96	7
TAP	18	192	0
TAP	18	192	2
TAP	18	288	3
TAP	18	288	4
TAP	19	0	1
TAP	19	0	6
TAP	19	96	2
TAP	19	192	3
TAP	19	288	4
TAP	20	0	1
TAP	20	96	2
TAP	20	96	5
TAP	20	192	6
TAP	20	288	2
TAP	20	288	5
TAP	21	0	1
TAP	21	0	6
TAP	21	96	0
TAP	21	192	1
TAP	21	288	0
TAP	22	0	0
TAP	22	0	7
TAP	22	96	1
TAP	22	96	7
TAP	22	192	0
TAP	22	192	6
TAP	22	288	1
TAP	22	288	6
TAP	23	0	5
TAP	23	96	4
TAP	23	192	3
TAP	23	288	2
TAP	24	0	1
TAP	24	0	3
TAP	24	96	2
TAP	24	96	4
TAP	24	192	3
TAP	24	192	5
TAP	24	288	2
TAP	24	288	5
TAP	25	0	7
TAP	25	96	5
TAP	25	192	0
TAP	25	288	2
TAP	26	0	2
HLD	26	0	5	288
TAP	26	96	3
TAP	26	192	4
STR	26	288	2
SI_	26	288	2	96	48	5
STR	27	288	6
SI_	27	288	6	96	48	1
STR	28	288	2
SI_	28	288	2	96	48	5
STR	29	288	6
SI_	29	288	6	96	48	1
HLD	31	0	1	192
TAP	31	192	5
TAP	31	288	2
TAP	32	0	7
TAP	32	96	0
TAP	32	192	1
STR	32	288	2
SI_	32	288	2	96	96	6
TAP	33	192	2
TAP	33	288	5
STR	34	0	2
SCR	34	0	2	96	192	5
STR	34	0	6
SCR	34	0	6	96	192	1
TAP	35	0	1
TAP	35	0	5
TAP	35	96	6
TAP	35	192	6
TAP	35	288	6
TAP	36	0	2
TAP	36	0	5
TAP	36	96	1
TAP	36	192	2
TAP	36	288	1
TAP	37	0	2
TAP	37	0	7
TAP	37	96	1
TAP	37	192	3
TAP	37	192	4
TAP	37	288	1
TAP	37	288	6
TAP	38	0	0
TAP	38	0	7
TAP	38	96	1
TAP	38	96	7
TAP	38	192	0
TAP	38	192	6
TAP	38	288	0
TAP	38	288	7
TAP	39	0	6
TAP	39	96	1
TAP	39	192	0
TAP	39	192	7
TAP	39	288	3
TAP	39	288	4
TAP	40	0	1
TAP	40	96	6
TAP	40	192	0
TAP	40	192	7
TAP	40	288	2
TAP	40	288	5
TAP	41	0	6
TAP	41	96	7
TAP	41	192	0
TAP	41	288	1
TAP	42	0	2
TAP	42	0	5
TAP	42	96	2
TAP	42	96	3
TAP	42	192	4
TAP	42	192	5
TAP	42	288	2
TAP	42	288	5
HLD	43	0	6	96
TAP	43	96	5
HLD	43	192	1	96
TAP	43	288	2
HLD	44	0	4	96
TAP	44	96	3
HLD	44	192	0	96
TAP	44	288	7
HLD	45	0	5	96
TAP	45	96	4
HLD	45	192	2	96
TAP	45	288	3
TAP	46	0	2
TAP	46	0	7
TAP	46	96	0
TAP	46	96	5
TAP	46	192	2
TAP	46	192	5
TAP	46	288	3
TAP	46	288	4
HLD	47	0	1	96
TAP	47	96	2
HLD	47	192	6	96
BRK	47	288	5
HLD	48	0	3	96
TAP	48	96	4
HLD	48	192	7	96
BRK	48	288	0
TAP	49	0	3
TAP	49	96	2
TAP	49	96	4
TAP	49	192	4
TAP	49	288	3
TAP	49	288	5
TAP	50	0	3
TAP	50	0	4
TAP	50	96	1
TAP	50	96	6
BRK	50	192	3
BRK	50	192	4
TAP	51	0	0
TAP	51	0	5
TAP	51	96	2
TAP	51	192	4
TAP	51	192	6
TAP	51	288	1
TAP	51	288	3
HLD	52	0	2	96
TAP	52	96	3
HLD	52	192	2	96
TAP	52	288	3
STR	53	0	1
SI_	53	0	1	96	48	4
STR	53	192	0
SI_	53	192	0	96	48	5
HLD	54	0	1	96
TAP	54	192	0
TAP	54	288	0
TAP	54	288	1
TAP	55	0	2
TAP	55	0	5
TAP	55	96	0
TAP	55	192	0
TAP	55	192	5
TAP	55	288	2
HLD	56	0	5	96
HLD	56	0	6	96
TAP	56	192	2
TAP	56	192	5
HLD	57	0	1	96
HLD	57	0	7	96
HLD	57	192	0	96
HLD	57	192	6	96
TAP	58	0	1
TAP	58	0	7
TAP	58	96	0
TAP	58	96	6
TAP	58	192	1
TAP	58	192	7
TAP	58	288	0
TAP	58	288	7
STR	59	0	7
SI_	59	0	7	96	48	3
STR	59	192	0
SI_	59	192	0	96	48	4
TAP	60	0	0
TAP	60	96	1
TAP	60	192	2
TAP	60	288	3
TAP	60	288	5
HLD	61	0	5	96
TAP	61	96	4
HLD	61	192	2	96
HLD	61	288	3	96
TAP	62	0	2
TAP	62	96	1
TAP	62	192	1
TAP	62	192	5
TAP	62	288	2
TAP	62	288	6
TAP	63	0	1
TAP	63	0	7
TAP	63	96	0
TAP	63	96	6
TAP	63	192	0
TAP	63	192	1
TAP	63	288	6
TAP	63	288	7
TAP	64	0	4
TAP	64	48	3
TAP	64	96	4
TAP	64	144	3
TAP	64	192	2
TAP	64	192	5
TAP	64	288	1
TAP	64	288	6
STR	65	0	6
SCR	65	0	6	96	48	1
STR	65	192	2
SCR	65	192	2	96	48	5
TAP	66	0	7
TAP	66	96	1
TAP	66	192	3
TAP	66	192	4
STR	66	288	2
SI_	66	288	2	96	48	5
STR	67	288	6
SI_	67	288	6	96	48	1
STR	68	288	2
SI_	68	288	2	96	48	5
STR	69	288	6
SI_	69	288	6	96	48	1
TAP	70	288	5

T_REC_TAP	263
T_REC_BRK	4
T_REC_XTP	0
T_REC_HLD	27
T_REC_XHO	0
T_REC_STR	17
T_REC_BST	0
T_REC_XST	0
T_REC_TTP	0
T_REC_THO	0
T_REC_SLD	17
T_REC_ALL	328
T_NUM_TAP	280
T_NUM_BRK	4
T_NUM_HLD	27
T_NUM_SLD	17
T_NUM_ALL	328
T_JUDGE_TAP	284
T_JUDGE_HLD	104
T_JUDGE_SLD	17
T_JUDGE_ALL	405
TTM_EACHPAIRS	80
TTM_SCR_TAP	140000
TTM_SCR_BRK	10400
TTM_SCR_HLD	27000
TTM_SCR_SLD	25500
TTM_SCR_ALL	202900
TTM_SCR_S	196450
TTM_SCR_SS	202500
TTM_RAT_ACV	10019

