VERSION	0.00.00	1.03.00
FES_MODE	0
BPM_DEF	171.000	171.000	171.000	171.000
MET_DEF	4	4
RESOLUTION	384
CLK_DEF	384
COMPATIBLE_CODE	MA2

BPM	0	0	171.000
MET	0	0	4	4

TAP	3	0	0
TAP	3	96	1
TAP	3	192	0
TAP	3	288	1
TAP	4	0	2
TAP	4	96	3
TAP	4	192	2
TAP	4	288	3
TAP	5	0	5
TAP	5	96	4
TAP	5	192	5
TAP	5	288	4
TAP	6	0	7
TAP	6	96	6
TAP	6	192	7
TAP	6	288	6
TAP	7	0	0
TAP	7	96	1
TAP	7	192	2
TAP	7	288	3
TAP	8	0	4
TAP	8	96	5
TAP	8	192	6
TAP	8	288	7
TAP	9	0	7
TAP	9	96	6
TAP	9	192	5
TAP	9	288	4
TAP	10	0	3
TAP	10	96	2
STR	10	192	1
SI_	10	192	1	96	96	6
TAP	11	96	2
TAP	11	288	3
TAP	12	96	2
TAP	12	288	1
TAP	13	96	0
TAP	13	288	7
TAP	14	0	7
TAP	14	96	6
TAP	14	192	6
TAP	14	288	5
TAP	15	96	5
TAP	15	288	4
TAP	16	96	5
TAP	16	288	6
TAP	17	96	7
TAP	17	288	0
TAP	18	0	0
TAP	18	96	1
TAP	18	192	1
TAP	18	288	2
HLD	19	0	1	288
TAP	19	96	0
TAP	19	288	0
HLD	20	0	7	288
TAP	20	96	0
TAP	20	288	0
HLD	21	0	1	288
TAP	21	96	2
TAP	21	288	2
TAP	22	0	1
TAP	22	96	0
TAP	22	192	1
TAP	22	192	6
TAP	22	288	2
TAP	22	288	5
HLD	23	0	6	288
TAP	23	96	7
TAP	23	288	7
HLD	24	0	0	288
TAP	24	96	7
TAP	24	288	7
HLD	25	0	6	288
TAP	25	96	5
TAP	25	288	5
TAP	26	0	2
TAP	26	0	5
TAP	26	96	1
TAP	26	96	6
TAP	26	192	1
TAP	26	192	6
TAP	26	288	0
TAP	26	288	7
HLD	27	96	1	96
STR	27	192	7
SI_	27	192	7	96	96	3
HLD	28	96	6	96
STR	28	192	0
SI_	28	192	0	96	96	4
HLD	29	96	2	96
STR	29	192	4
SI_	29	192	4	96	96	0
HLD	30	96	5	96
STR	30	192	3
SI_	30	192	3	96	96	7
HLD	31	96	0	96
STR	31	192	2
SI_	31	192	2	96	96	6
HLD	32	96	7	96
STR	32	192	5
SI_	32	192	5	96	96	1
HLD	33	96	3	96
STR	33	192	1
SI_	33	192	1	96	96	5
HLD	34	96	4	96
STR	34	192	6
SI_	34	192	6	96	96	2
TAP	35	96	2
TAP	35	288	3
TAP	36	96	2
TAP	36	288	1
TAP	37	96	0
TAP	37	288	7
HLD	38	0	6	96
HLD	38	96	5	96
HLD	38	192	4	96
HLD	38	288	3	96
TAP	39	96	5
TAP	39	288	4
TAP	40	96	5
TAP	40	288	6
TAP	41	96	7
TAP	41	288	0
HLD	42	0	1	96
HLD	42	96	2	96
HLD	42	192	3	96
HLD	42	288	4	96
TAP	43	0	6
TAP	43	96	5
TAP	43	192	6
TAP	43	288	0
TAP	43	288	7
TAP	44	0	1
TAP	44	96	2
TAP	44	192	1
TAP	44	288	0
TAP	44	288	7
TAP	45	0	6
TAP	45	96	5
TAP	45	192	4
TAP	45	288	3
TAP	45	288	4
TAP	46	0	2
TAP	46	0	3
TAP	46	96	3
TAP	46	96	4
TAP	46	192	4
TAP	46	192	5
TAP	46	288	3
TAP	46	288	4
TAP	47	0	2
TAP	47	96	1
TAP	47	192	0
TAP	47	288	0
TAP	47	288	7
TAP	48	0	6
TAP	48	96	5
TAP	48	192	6
TAP	48	288	0
TAP	48	288	7
TAP	49	0	1
TAP	49	96	5
TAP	49	192	7
TAP	49	288	3
TAP	50	0	1
TAP	50	0	2
STR	50	96	0
SI_	50	96	0	96	96	3
TAP	51	0	5
TAP	51	0	6
HLD	51	96	1	96
TAP	51	192	2
TAP	51	288	0
TAP	52	0	7
HLD	52	96	6	96
TAP	52	192	5
TAP	52	288	0
TAP	52	288	7
HLD	53	0	2	192
HLD	53	192	3	192
TAP	54	0	2
TAP	54	96	1
TAP	54	192	0
BRK	54	288	0
TAP	54	288	7
TAP	55	0	0
TAP	55	0	1
HLD	55	96	2	96
TAP	55	192	1
TAP	55	288	0
HLD	56	0	7	192
TAP	56	96	6
TAP	56	192	5
TAP	56	288	4
TAP	57	0	2
TAP	57	0	5
TAP	57	192	0
TAP	58	0	1
TAP	58	96	2
TAP	58	192	2
TAP	58	192	3
BRK	58	288	1
TAP	58	288	6
TAP	59	0	6
TAP	59	0	7
HLD	59	96	5	96
TAP	59	192	6
TAP	59	288	7
HLD	60	0	0	192
TAP	60	96	1
TAP	60	192	2
TAP	60	288	3
TAP	61	0	2
TAP	61	0	5
TAP	61	192	7
TAP	62	0	6
TAP	62	96	5
TAP	62	192	3
TAP	62	192	4
BRK	62	288	2
TAP	62	288	5
TAP	63	0	0
TAP	63	0	1
TAP	63	96	0
TAP	63	192	6
TAP	63	192	7
TAP	63	288	7
TAP	64	0	0
TAP	64	0	1
TAP	64	96	0
TAP	64	96	7
TAP	64	192	6
TAP	64	192	7
TAP	64	288	5
HLD	65	0	6	192
HLD	65	192	5	192
TAP	66	0	4
TAP	66	96	3
TAP	66	192	2
BRK	66	288	1
TAP	66	288	6
TAP	67	0	0
TAP	67	96	1
TAP	67	192	2
TAP	67	288	3
TAP	68	0	4
TAP	68	96	5
TAP	68	192	6
TAP	68	288	7
TAP	69	0	7
TAP	69	96	6
TAP	69	192	5
TAP	69	288	4
TAP	70	0	3
TAP	70	96	2
TAP	70	192	1
TAP	70	288	0

T_REC_TAP	202
T_REC_BRK	4
T_REC_XTP	0
T_REC_HLD	32
T_REC_XHO	0
T_REC_STR	10
T_REC_BST	0
T_REC_XST	0
T_REC_TTP	0
T_REC_THO	0
T_REC_SLD	10
T_REC_ALL	258
T_NUM_TAP	212
T_NUM_BRK	4
T_NUM_HLD	32
T_NUM_SLD	10
T_NUM_ALL	258
T_JUDGE_TAP	216
T_JUDGE_HLD	100
T_JUDGE_SLD	10
T_JUDGE_ALL	326
TTM_EACHPAIRS	33
TTM_SCR_TAP	106000
TTM_SCR_BRK	10400
TTM_SCR_HLD	32000
TTM_SCR_SLD	15000
TTM_SCR_ALL	163400
TTM_SCR_S	158150
TTM_SCR_SS	163000
TTM_RAT_ACV	10024

