VERSION	0.00.00	1.03.00
FES_MODE	0
BPM_DEF	171.000	171.000	171.000	171.000
MET_DEF	4	4
RESOLUTION	384
CLK_DEF	384
COMPATIBLE_CODE	MA2

BPM	0	0	171.000
MET	0	0	4	4

HLD	3	0	7	672
TAP	5	0	7
TAP	5	192	6
TAP	6	0	5
TAP	6	192	4
HLD	7	0	0	672
TAP	9	0	0
TAP	9	192	1
TAP	10	0	2
TAP	10	192	3
HLD	11	0	7	288
TAP	12	0	2
TAP	12	192	2
HLD	13	0	5	288
TAP	14	0	4
TAP	14	192	5
HLD	15	0	6	288
TAP	16	0	2
TAP	16	192	2
HLD	17	0	5	288
TAP	18	0	1
TAP	18	96	0
TAP	18	192	1
TAP	18	288	0
HLD	19	0	2	288
HLD	19	0	5	288
TAP	20	0	2
TAP	20	192	5
HLD	21	0	2	288
HLD	21	0	5	288
TAP	22	0	5
TAP	22	96	3
TAP	22	96	4
TAP	22	192	2
TAP	22	288	3
HLD	23	0	2	288
STR	24	0	1
SI_	24	0	1	96	192	6
TAP	25	0	7
TAP	25	96	5
TAP	25	192	0
TAP	25	288	2
HLD	26	0	6	288
TAP	27	0	6
STR	27	96	6
SI_	27	96	6	96	192	1
STR	28	96	2
SI_	28	96	2	96	192	5
STR	29	96	6
SI_	29	96	6	96	192	1
HLD	31	0	1	96
TAP	31	192	4
TAP	31	288	3
HLD	33	0	6	96
TAP	33	192	3
TAP	33	288	4
STR	34	0	1
SI_	34	0	1	96	192	6
HLD	35	96	6	192
TAP	36	0	5
TAP	36	192	5
HLD	37	0	1	96
HLD	37	0	6	96
TAP	37	192	3
TAP	37	192	4
TAP	38	0	0
TAP	38	0	6
TAP	38	192	1
TAP	38	192	7
TAP	39	0	5
TAP	39	0	6
TAP	39	192	7
TAP	40	0	1
TAP	40	0	2
TAP	40	192	0
TAP	41	0	6
TAP	41	96	7
TAP	41	192	0
TAP	41	288	1
STR	42	0	1
SI_	42	0	1	96	192	6
TAP	43	96	6
TAP	43	288	1
TAP	44	96	2
TAP	44	96	5
TAP	44	288	2
TAP	44	288	5
TAP	45	96	1
TAP	45	96	5
TAP	45	288	0
STR	46	0	1
SI_	46	0	1	96	192	6
TAP	47	0	7
TAP	47	96	1
TAP	47	192	5
TAP	47	288	6
TAP	48	0	2
TAP	48	0	5
TAP	48	192	1
TAP	48	192	6
STR	49	0	6
SI_	49	0	6	96	192	1
TAP	50	192	1
TAP	50	192	6
TAP	50	288	2
TAP	50	288	5
TAP	51	96	0
TAP	51	96	5
TAP	51	288	0
TAP	51	288	5
TAP	52	96	1
TAP	52	96	2
TAP	52	288	5
TAP	52	288	6
TAP	53	96	4
TAP	53	96	5
TAP	53	288	4
TAP	53	288	5
TAP	54	96	5
TAP	54	192	0
TAP	54	288	0
TAP	55	96	2
TAP	55	288	0
TAP	56	96	5
TAP	56	192	6
TAP	56	288	7
TAP	57	96	1
TAP	57	96	7
TAP	57	288	0
TAP	57	288	6
TAP	58	96	0
TAP	58	96	7
TAP	58	192	0
TAP	58	192	7
TAP	58	288	0
TAP	58	288	7
TAP	59	0	7
TAP	59	96	2
TAP	59	192	0
TAP	59	288	5
TAP	60	0	7
TAP	60	96	2
STR	60	192	0
SI_	60	192	0	96	192	5
TAP	61	288	4
TAP	62	96	3
TAP	62	96	4
TAP	62	288	2
TAP	62	288	5
TAP	63	96	0
TAP	63	96	7
TAP	63	288	0
TAP	63	288	7
TAP	64	96	1
TAP	64	96	6
TAP	64	288	1
TAP	64	288	6
STR	65	96	1
SI_	65	96	1	96	192	6
TAP	66	96	0
BRK	66	288	0
BRK	67	0	6
STR	67	96	6
SI_	67	96	6	96	192	1
STR	68	96	2
SI_	68	96	2	96	192	5
STR	69	96	6
SI_	69	96	6	96	192	1
STR	70	96	2
SI_	70	96	2	96	192	5

T_REC_TAP	123
T_REC_BRK	2
T_REC_XTP	0
T_REC_HLD	17
T_REC_XHO	0
T_REC_STR	14
T_REC_BST	0
T_REC_XST	0
T_REC_TTP	0
T_REC_THO	0
T_REC_SLD	14
T_REC_ALL	170
T_NUM_TAP	137
T_NUM_BRK	2
T_NUM_HLD	17
T_NUM_SLD	14
T_NUM_ALL	170
T_JUDGE_TAP	139
T_JUDGE_HLD	100
T_JUDGE_SLD	14
T_JUDGE_ALL	253
TTM_EACHPAIRS	33
TTM_SCR_TAP	68500
TTM_SCR_BRK	5200
TTM_SCR_HLD	17000
TTM_SCR_SLD	21000
TTM_SCR_ALL	111700
TTM_SCR_S	108200
TTM_SCR_SS	111500
TTM_RAT_ACV	10017

