VERSION	0.00.00	1.03.00
FES_MODE	0
BPM_DEF	138.000	138.000	138.000	138.000
MET_DEF	4	4
RESOLUTION	384
CLK_DEF	384
COMPATIBLE_CODE	MA2

BPM	0	0	138.000
MET	0	0	4	4

HLD	1	0	6	672
STR	1	0	7
SLL	1	0	7	96	192	1
STR	2	0	1
SLR	2	0	1	96	192	7
STR	3	0	0
SLR	3	0	0	96	192	6
HLD	3	0	1	672
STR	4	0	6
SLL	4	0	6	96	192	0
HLD	5	0	4	96
STR	5	0	5
SI_	5	0	5	96	48	3
STR	5	192	2
SI_	5	192	2	96	48	4
HLD	5	192	3	96
STR	6	0	4
SI_	6	0	4	96	48	6
HLD	6	0	5	96
HLD	6	192	2	96
STR	6	192	3
SI_	6	192	3	96	48	1
STR	7	0	5
SI_	7	0	5	96	48	7
HLD	7	0	6	96
HLD	7	192	1	96
STR	7	192	2
SI_	7	192	2	96	48	0
TAP	8	0	3
TAP	8	0	4
STR	8	96	0
SI_	8	96	0	96	48	5
STR	8	96	1
SI_	8	96	1	96	48	4
TAP	8	192	0
TAP	8	192	1
BRK	8	288	1
BRK	8	288	6
STR	9	0	0
SSL	9	0	0	96	96	4
STR	9	96	4
SSL	9	96	4	96	96	0
HLD	9	192	5	96
STR	10	0	7
SSR	10	0	7	96	96	3
STR	10	96	3
SSR	10	96	3	96	96	7
HLD	10	192	2	96
STR	11	0	4
SUR	11	0	4	96	48	0
TAP	11	0	5
TAP	11	96	7
TAP	11	192	2
STR	11	192	3
SUL	11	192	3	96	48	7
TAP	11	288	0
STR	12	0	2
SXR	12	0	2	96	144	2
STR	12	0	5
SXR	12	0	5	96	144	5
TAP	12	288	6
TAP	12	288	7
STR	13	0	1
SV_	13	0	1	96	48	7
STR	13	96	6
SLL	13	96	6	96	48	2
STR	13	192	1
SCL	13	192	1	96	48	6
STR	14	0	5
SV_	14	0	5	96	48	3
STR	14	96	2
SLL	14	96	2	96	48	6
STR	14	192	5
SCL	14	192	5	96	48	2
STR	15	0	0
SCL	15	0	0	96	48	5
SCR	15	0	0	96	48	3
STR	15	192	7
SCL	15	192	7	96	48	4
SCR	15	192	7	96	48	2
STR	16	0	1
SCL	16	0	1	96	48	6
HLD	16	0	4	384
STR	16	96	1
SI_	16	96	1	96	48	5
STR	16	192	1
SI_	16	192	1	96	48	3
STR	16	288	1
SCL	16	288	1	96	144	2
TAP	17	0	1
TAP	17	192	1
TAP	17	192	6
TAP	17	288	3
TAP	17	288	4
TAP	18	0	5
TAP	18	24	4
TAP	18	72	3
TAP	18	72	6
TAP	18	120	1
TAP	18	144	0
TAP	18	192	3
STR	18	192	6
SCR	18	192	6	96	48	1
TAP	18	288	4
TAP	19	0	2
TAP	19	24	3
TAP	19	72	1
TAP	19	72	4
TAP	19	120	6
TAP	19	144	7
STR	19	192	1
SCL	19	192	1	96	48	6
TAP	19	192	4
STR	19	288	3
SI_	19	288	3	96	48	7
STR	20	0	2
SI_	20	0	2	96	48	0
STR	20	96	4
SI_	20	96	4	96	48	6
STR	20	192	3
SI_	20	192	3	96	48	7
TAP	21	0	6
TAP	21	24	7
TAP	21	72	0
TAP	21	72	5
TAP	21	120	2
TAP	21	144	3
TAP	21	192	0
STR	21	192	5
SCL	21	192	5	96	48	2
TAP	21	288	7
TAP	22	0	1
TAP	22	24	0
TAP	22	72	2
TAP	22	72	7
TAP	22	120	5
TAP	22	144	4
STR	22	192	2
SCR	22	192	2	96	48	5
TAP	22	192	7
TAP	22	288	0
TAP	23	0	6
TAP	23	24	7
TAP	23	72	0
TAP	23	72	5
TAP	23	120	2
TAP	23	144	3
TAP	23	192	0
STR	23	192	5
SCL	23	192	5	96	48	2
STR	23	288	1
SI_	23	288	1	96	48	7
STR	24	0	3
SI_	24	0	3	96	48	5
STR	24	96	2
SI_	24	96	2	96	48	6
STR	24	192	3
SI_	24	192	3	96	48	7
STR	25	0	4
SCR	25	0	4	96	192	3
HLD	25	0	5	288
HLD	26	0	2	288
STR	26	0	3
SCL	26	0	3	96	192	4
STR	27	0	4
SXL	27	0	4	96	192	4
SXR	27	0	4	96	192	4
TAP	27	0	5
STR	28	0	3
SUR	28	0	3	96	96	3
STR	28	96	3
SCR	28	96	3	96	144	3
STR	29	0	4
SXL	29	0	4	96	48	6
SXR	29	0	4	96	48	2
STR	29	192	3
SXL	29	192	3	96	48	5
SXR	29	192	3	96	48	1
HLD	30	0	2	288
STR	30	0	3
SCL	30	0	3	96	192	4
STR	31	0	0
SI_	31	0	0	96	48	4
STR	31	0	7
SI_	31	0	7	96	48	5
STR	31	192	0
SI_	31	192	0	96	48	2
STR	31	192	7
SI_	31	192	7	96	48	3
STR	32	0	1
SI_	32	0	1	96	48	6
STR	32	0	5
SI_	32	0	5	96	48	2
TAP	32	192	0
TAP	32	192	7
TAP	32	288	3
TAP	32	288	4
STR	33	0	3
SCL	33	0	3	96	192	6
TAP	33	0	5
TAP	33	96	5
TAP	33	192	4
TAP	33	288	4
TAP	34	0	4
STR	34	0	6
SCR	34	0	6	96	192	3
TAP	34	96	4
TAP	34	192	5
TAP	34	288	5
TAP	35	0	2
STR	35	0	4
SCR	35	0	4	96	192	1
TAP	35	96	2
TAP	35	192	3
TAP	35	288	3
STR	36	0	1
SCL	36	0	1	96	192	4
TAP	36	0	3
TAP	36	96	3
TAP	36	192	2
TAP	36	288	2
STR	37	0	7
SI_	37	0	7	96	48	2
TAP	37	96	0
STR	37	192	0
SI_	37	192	0	96	48	5
TAP	37	288	7
HLD	38	0	4	48
HLD	38	0	6	48
HLD	38	72	1	48
HLD	38	72	3	48
STR	38	144	2
SI_	38	144	2	96	48	0
STR	38	144	7
SI_	38	144	7	96	48	5
TAP	38	240	2
TAP	38	240	7
STR	38	336	1
SUR	38	336	1	96	48	5
HLD	39	0	1	96
STR	39	144	6
SUL	39	144	6	96	48	2
HLD	39	192	6	96
STR	39	336	0
SI_	39	336	0	96	96	4
HLD	40	0	0	96
BRK	40	192	2
BRK	40	192	5
TAP	40	288	3
TAP	40	288	4
TAP	41	0	2
STR	41	0	7
SXL	41	0	7	96	144	2
SXL	41	0	7	96	144	4
TAP	41	288	6
TAP	41	288	7
STR	42	0	0
SXR	42	0	0	96	144	3
SXR	42	0	0	96	144	5
TAP	42	0	5
TAP	42	288	0
TAP	42	288	1
STR	43	0	3
SUR	43	0	3	96	192	5
STR	43	0	5
SCR	43	0	5	96	192	4
STR	44	0	2
SCL	44	0	2	96	192	3
STR	44	0	4
SUL	44	0	4	96	192	2
STR	45	0	3
SV_	45	0	3	96	48	1
STR	45	0	6
SLL	45	0	6	96	48	2
STR	45	192	1
SLR	45	192	1	96	48	5
STR	45	192	4
SV_	45	192	4	96	48	6
STR	46	0	4
SV_	46	0	4	96	48	2
STR	46	0	7
SLL	46	0	7	96	48	3
STR	46	192	0
SLR	46	192	0	96	48	4
STR	46	192	3
SV_	46	192	3	96	48	5
HLD	47	0	7	72
HLD	47	72	5	72
TAP	47	144	4
HLD	47	192	0	72
HLD	47	264	2	72
TAP	47	336	3
STR	48	0	3
SCL	48	0	3	96	192	4
TAP	49	0	3
TAP	49	0	4
STR	49	96	6
SI_	49	96	6	96	48	3
STR	49	96	7
SI_	49	96	7	96	48	2
TAP	49	192	6
TAP	49	192	7
BRK	49	288	1
BRK	49	288	6
STR	50	0	7
SLL	50	0	7	96	96	3
STR	50	96	3
SLR	50	96	3	96	96	1
HLD	50	192	0	96
STR	51	0	0
SLR	51	0	0	96	96	4
STR	51	96	4
SLL	51	96	4	96	96	6
HLD	51	192	7	96
TAP	52	0	2
STR	52	0	3
SUL	52	0	3	96	48	7
TAP	52	48	1
TAP	52	96	0
STR	52	192	4
SUR	52	192	4	96	48	0
TAP	52	192	5
TAP	52	240	6
TAP	52	288	7
STR	53	0	2
SXL	53	0	2	96	144	2
STR	53	0	5
SXL	53	0	5	96	144	5
TAP	53	288	0
TAP	53	288	1
STR	54	0	6
SV_	54	0	6	96	48	0
STR	54	96	1
SLR	54	96	1	96	48	5
STR	54	192	6
SCR	54	192	6	96	48	1
STR	55	0	2
SV_	55	0	2	96	48	4
STR	55	96	5
SLR	55	96	5	96	48	1
STR	55	192	2
SCR	55	192	2	96	48	5
STR	56	0	7
SCL	56	0	7	96	48	4
SCR	56	0	7	96	48	2
STR	56	192	0
SCL	56	192	0	96	48	5
SCR	56	192	0	96	48	3
HLD	57	0	3	384
STR	57	0	6
SCR	57	0	6	96	48	1
STR	57	96	6
SI_	57	96	6	96	48	2
STR	57	192	6
SI_	57	192	6	96	48	4
STR	57	288	6
SCR	57	288	6	96	288	5
TAP	58	0	6

T_REC_TAP	101
T_REC_BRK	6
T_REC_XTP	0
T_REC_HLD	28
T_REC_XHO	0
T_REC_STR	107
T_REC_BST	0
T_REC_XST	0
T_REC_TTP	0
T_REC_THO	0
T_REC_SLD	116
T_REC_ALL	358
T_NUM_TAP	208
T_NUM_BRK	6
T_NUM_HLD	28
T_NUM_SLD	116
T_NUM_ALL	358
T_JUDGE_TAP	214
T_JUDGE_HLD	100
T_JUDGE_SLD	116
T_JUDGE_ALL	430
TTM_EACHPAIRS	67
TTM_SCR_TAP	104000
TTM_SCR_BRK	15600
TTM_SCR_HLD	28000
TTM_SCR_SLD	174000
TTM_SCR_ALL	321600
TTM_SCR_S	311400
TTM_SCR_SS	321000
TTM_RAT_ACV	10018

