VERSION	0.00.00	1.03.00
FES_MODE	0
BPM_DEF	138.000	138.000	138.000	138.000
MET_DEF	4	4
RESOLUTION	384
CLK_DEF	384
COMPATIBLE_CODE	MA2

BPM	0	0	138.000
MET	0	0	4	4

HLD	1	0	5	288
HLD	2	0	1	288
HLD	3	0	4	288
HLD	4	0	0	288
TAP	5	0	1
HLD	5	0	5	288
TAP	5	96	1
TAP	5	192	1
TAP	5	288	1
TAP	6	0	1
HLD	6	0	5	288
TAP	6	96	2
TAP	6	192	0
TAP	6	288	2
STR	7	0	1
SI_	7	0	1	96	48	4
STR	7	192	6
SI_	7	192	6	96	48	3
TAP	8	0	1
TAP	8	96	3
TAP	8	192	1
TAP	8	288	3
STR	9	0	7
SI_	9	0	7	96	48	2
STR	9	96	1
SI_	9	96	1	96	48	5
TAP	9	288	4
STR	10	0	0
SI_	10	0	0	96	48	5
STR	10	96	6
SI_	10	96	6	96	48	2
TAP	10	288	3
TAP	11	0	2
TAP	11	0	3
TAP	11	96	2
TAP	11	96	3
TAP	11	192	5
TAP	11	192	7
TAP	11	288	5
TAP	11	288	7
TAP	12	0	1
TAP	12	0	5
TAP	12	96	1
TAP	12	96	5
TAP	12	192	6
TAP	12	192	7
TAP	12	288	6
TAP	12	288	7
TAP	13	0	2
TAP	13	0	6
TAP	13	96	1
TAP	13	96	5
TAP	13	192	3
TAP	13	192	4
TAP	13	240	2
TAP	13	240	3
TAP	13	288	3
TAP	13	288	4
STR	14	0	2
SI_	14	0	2	96	48	7
STR	14	0	6
SI_	14	0	6	96	48	3
STR	14	192	2
SI_	14	192	2	96	48	5
STR	14	192	6
SI_	14	192	6	96	48	1
HLD	15	0	2	96
HLD	15	96	3	96
HLD	15	192	4	96
HLD	15	288	5	384
TAP	16	96	0
TAP	16	192	7
TAP	16	288	6
BRK	17	0	5
TAP	17	96	0
TAP	17	192	1
TAP	17	192	2
TAP	17	288	1
TAP	17	288	6
TAP	18	0	0
TAP	18	96	6
TAP	18	96	7
TAP	18	192	5
TAP	18	192	6
TAP	18	288	2
TAP	18	288	5
TAP	19	0	0
TAP	19	0	1
TAP	19	96	4
TAP	19	96	5
TAP	19	192	6
TAP	19	192	7
TAP	19	288	2
TAP	19	288	3
STR	20	0	2
SI_	20	0	2	96	48	7
TAP	20	96	2
STR	20	192	2
SI_	20	192	2	96	48	5
TAP	20	288	2
TAP	21	0	4
TAP	21	96	3
TAP	21	96	5
TAP	21	192	6
TAP	21	192	7
TAP	21	288	0
TAP	21	288	1
TAP	22	0	3
TAP	22	96	2
TAP	22	96	4
TAP	22	192	0
TAP	22	192	1
TAP	22	288	6
TAP	22	288	7
TAP	23	0	0
TAP	23	0	1
TAP	23	96	4
TAP	23	96	5
TAP	23	192	6
TAP	23	192	7
TAP	23	288	2
TAP	23	288	3
STR	24	0	5
SI_	24	0	5	96	48	0
TAP	24	96	5
STR	24	192	5
SI_	24	192	5	96	48	2
TAP	24	288	5
TAP	25	0	3
HLD	25	0	4	96
TAP	25	96	3
TAP	25	192	2
HLD	25	192	5	96
TAP	25	288	2
HLD	26	0	1	96
TAP	26	0	6
TAP	26	96	6
TAP	26	192	0
HLD	26	192	7	96
TAP	26	288	0
TAP	27	0	5
STR	27	0	6
SI_	27	0	6	96	48	1
TAP	27	192	1
STR	27	192	2
SI_	27	192	2	96	48	5
HLD	28	0	1	96
HLD	28	0	6	96
HLD	28	192	2	96
HLD	28	192	5	96
STR	29	0	6
SCL	29	0	6	96	48	3
STR	29	192	2
SCL	29	192	2	96	48	7
HLD	30	0	6	96
HLD	30	97	7	95
HLD	30	191	0	97
TAP	31	0	0
HLD	31	0	7	96
TAP	31	96	0
HLD	31	192	1	96
TAP	31	192	6
TAP	31	288	6
TAP	32	0	2
HLD	32	0	5	96
TAP	32	96	2
HLD	32	192	3	96
TAP	32	192	4
TAP	32	288	4
TAP	33	0	1
TAP	33	0	3
TAP	33	96	0
TAP	33	96	3
TAP	33	192	3
STR	33	192	6
SCR	33	192	6	96	48	1
TAP	33	288	3
TAP	34	0	4
TAP	34	0	6
TAP	34	96	4
TAP	34	96	7
STR	34	192	1
SCL	34	192	1	96	48	6
TAP	34	192	4
TAP	34	288	4
TAP	35	0	6
TAP	35	0	7
TAP	35	96	1
TAP	35	96	6
TAP	35	192	2
TAP	35	192	3
TAP	35	288	2
TAP	35	288	5
STR	36	0	7
SI_	36	0	7	96	48	4
STR	36	192	0
SI_	36	192	0	96	48	3
TAP	37	0	5
TAP	37	0	6
TAP	37	96	4
TAP	37	96	6
TAP	37	192	3
TAP	37	192	6
TAP	37	288	2
TAP	37	288	6
TAP	38	0	0
TAP	38	0	1
TAP	38	72	0
TAP	38	72	7
TAP	38	144	1
TAP	38	144	7
TAP	38	288	0
TAP	39	0	0
HLD	39	0	4	96
TAP	39	96	1
HLD	39	192	3	96
TAP	39	192	7
TAP	39	288	6
TAP	40	0	5
STR	40	96	6
SI_	40	96	6	96	96	1
TAP	40	192	7
TAP	40	288	0
TAP	41	0	6
TAP	41	0	7
TAP	41	72	1
TAP	41	72	2
STR	41	144	5
SI_	41	144	5	96	48	1
TAP	41	288	2
TAP	42	0	0
TAP	42	0	1
TAP	42	72	5
TAP	42	72	6
STR	42	144	2
SI_	42	144	2	96	48	6
TAP	42	288	5
TAP	43	0	0
TAP	43	0	1
TAP	43	72	0
TAP	43	72	6
STR	43	144	3
SI_	43	144	3	96	48	0
TAP	43	288	7
TAP	44	0	6
TAP	44	0	7
TAP	44	72	1
TAP	44	72	7
STR	44	144	4
SI_	44	144	4	96	48	7
TAP	44	288	0
TAP	45	0	4
TAP	45	0	5
TAP	45	96	2
TAP	45	96	3
TAP	45	192	3
TAP	45	192	5
TAP	45	288	2
TAP	45	288	4
TAP	46	0	6
TAP	46	96	1
TAP	46	192	7
TAP	46	288	0
TAP	47	0	7
TAP	47	72	0
HLD	47	144	1	240
TAP	47	192	0
TAP	47	264	7
TAP	47	336	6
HLD	48	0	5	384
TAP	48	96	7
TAP	48	192	0
TAP	48	288	7
TAP	49	0	0
BRK	49	288	6
BRK	49	288	7
TAP	50	0	5
STR	50	0	7
SCR	50	0	7	96	48	2
TAP	50	96	3
TAP	50	192	6
TAP	50	288	6
TAP	50	288	7
TAP	51	0	1
STR	51	0	3
SCR	51	0	3	96	48	6
TAP	51	96	7
TAP	51	192	2
TAP	51	288	0
TAP	51	288	1
TAP	52	0	5
TAP	52	0	7
TAP	52	96	5
TAP	52	96	7
TAP	52	192	0
TAP	52	192	2
TAP	52	288	0
TAP	52	288	2
TAP	53	0	1
TAP	53	0	2
TAP	53	96	3
TAP	53	96	4
TAP	53	192	5
TAP	53	192	6
TAP	53	288	2
TAP	53	288	6
TAP	54	0	1
STR	54	0	2
SI_	54	0	2	96	96	5
TAP	54	96	2
TAP	54	192	3
TAP	54	288	6
TAP	54	288	7
STR	55	0	5
SI_	55	0	5	96	96	2
TAP	55	0	6
TAP	55	96	4
TAP	55	192	3
TAP	55	288	0
TAP	55	288	1
STR	56	0	2
SCL	56	0	2	96	288	7
STR	56	0	6
SCL	56	0	6	96	288	3
TAP	57	96	0
TAP	57	96	5
TAP	57	192	1
TAP	57	192	7
TAP	57	288	2
TAP	57	288	4
BRK	58	0	5

T_REC_TAP	232
T_REC_BRK	4
T_REC_XTP	0
T_REC_HLD	29
T_REC_XHO	0
T_REC_STR	33
T_REC_BST	0
T_REC_XST	0
T_REC_TTP	0
T_REC_THO	0
T_REC_SLD	33
T_REC_ALL	331
T_NUM_TAP	265
T_NUM_BRK	4
T_NUM_HLD	29
T_NUM_SLD	33
T_NUM_ALL	331
T_JUDGE_TAP	269
T_JUDGE_HLD	98
T_JUDGE_SLD	33
T_JUDGE_ALL	400
TTM_EACHPAIRS	100
TTM_SCR_TAP	132500
TTM_SCR_BRK	10400
TTM_SCR_HLD	29000
TTM_SCR_SLD	49500
TTM_SCR_ALL	221400
TTM_SCR_S	214400
TTM_SCR_SS	221000
TTM_RAT_ACV	10018

