VERSION	0.00.00	1.03.00
FES_MODE	0
BPM_DEF	138.000	138.000	138.000	138.000
MET_DEF	4	4
RESOLUTION	384
CLK_DEF	384
COMPATIBLE_CODE	MA2

BPM	0	0	138.000
MET	0	0	4	4

HLD	2	0	6	288
STR	3	0	1
SCR	3	0	1	96	192	4
HLD	4	0	5	288
TAP	4	96	7
TAP	4	192	1
TAP	4	288	3
TAP	5	0	7
TAP	5	96	7
TAP	5	192	7
TAP	5	288	7
TAP	6	0	0
TAP	6	96	6
STR	6	192	0
SCL	6	192	0	96	96	5
TAP	7	0	2
HLD	7	96	1	192
TAP	7	192	5
TAP	7	288	6
STR	8	0	3
SI_	8	0	3	96	96	0
STR	8	0	4
SI_	8	0	4	96	97	7
BRK	8	288	0
HLD	9	0	4	288
TAP	9	0	6
TAP	9	96	1
TAP	9	192	5
TAP	9	240	2
TAP	9	288	3
TAP	10	0	7
TAP	10	96	6
HLD	10	192	5	96
TAP	10	288	6
TAP	11	0	5
TAP	11	48	4
TAP	11	96	5
TAP	11	192	0
TAP	11	240	1
TAP	11	288	0
TAP	12	0	1
TAP	12	0	6
TAP	12	96	1
TAP	12	96	6
TAP	12	192	0
TAP	12	192	1
TAP	12	288	0
TAP	12	288	1
HLD	13	0	5	96
TAP	13	96	2
TAP	13	192	4
TAP	13	240	3
TAP	13	288	4
STR	14	0	1
SI_	14	0	1	96	96	6
TAP	14	192	2
TAP	14	288	1
TAP	15	0	5
TAP	15	0	6
TAP	15	96	1
TAP	15	96	2
TAP	15	192	5
STR	15	192	6
SI_	15	192	6	96	96	1
TAP	16	96	1
TAP	16	96	2
TAP	16	192	2
TAP	16	192	3
TAP	16	288	4
TAP	16	288	5
BRK	17	0	2
BRK	17	0	3
TAP	17	288	7
HLD	18	0	3	96
TAP	18	96	2
TAP	18	192	3
TAP	18	192	5
TAP	18	288	2
TAP	18	288	4
TAP	19	0	0
TAP	19	0	2
TAP	19	96	1
TAP	19	192	0
TAP	19	192	7
TAP	19	288	2
TAP	19	288	5
TAP	20	0	2
HLD	20	0	4	96
HLD	20	96	3	192
TAP	20	192	5
TAP	20	288	4
TAP	21	0	0
TAP	21	0	4
TAP	21	96	5
TAP	21	96	7
TAP	21	192	1
TAP	21	192	2
HLD	22	0	1	96
TAP	22	0	6
TAP	22	96	2
TAP	22	192	1
HLD	22	192	6	96
TAP	22	288	5
TAP	23	0	4
TAP	23	0	5
TAP	23	96	3
TAP	23	192	2
TAP	23	192	3
TAP	23	288	4
TAP	24	0	2
TAP	24	96	1
TAP	24	192	0
STR	24	288	0
SCR	24	288	0	96	192	3
STR	24	288	7
SCL	24	288	7	96	192	4
STR	26	288	3
SI_	26	288	3	96	192	0
STR	26	288	4
SI_	26	288	4	96	193	7
TAP	28	0	0
TAP	28	0	7
TAP	28	96	1
TAP	28	96	6
TAP	28	192	0
TAP	28	192	7
HLD	29	0	2	96
HLD	29	0	5	96
HLD	29	192	1	96
HLD	29	192	6	96
STR	30	0	0
SI_	30	0	0	96	192	3
STR	30	0	4
SI_	30	0	4	96	192	7
HLD	31	0	0	96
HLD	31	0	5	96
HLD	31	192	2	96
HLD	31	192	7	96
HLD	32	0	7	96
TAP	32	96	2
TAP	32	192	1
TAP	32	192	6
TAP	32	288	0
TAP	32	288	5
TAP	33	0	3
TAP	33	0	4
TAP	33	96	1
TAP	33	96	6
TAP	33	192	0
TAP	33	192	7
TAP	33	288	0
TAP	33	288	6
TAP	34	0	2
TAP	34	0	4
TAP	34	96	1
TAP	34	96	5
TAP	34	192	0
TAP	34	192	4
STR	34	288	0
SCR	34	288	0	96	192	3
STR	34	288	4
SCR	34	288	4	96	192	7
TAP	36	0	3
TAP	36	0	5
TAP	36	96	2
TAP	36	96	4
TAP	36	192	1
TAP	36	192	6
TAP	36	288	3
TAP	36	288	4
TAP	37	0	3
TAP	37	96	2
HLD	37	192	1	96
TAP	37	288	2
TAP	38	0	0
TAP	38	0	1
TAP	38	72	5
TAP	38	72	6
HLD	38	144	2	144
TAP	38	144	3
TAP	38	288	3
HLD	39	0	0	96
TAP	39	96	7
HLD	39	192	7	96
TAP	39	288	0
TAP	40	0	0
TAP	40	0	6
TAP	40	96	1
TAP	40	96	7
TAP	40	192	0
TAP	40	192	5
TAP	40	288	1
TAP	40	288	6
TAP	41	0	1
TAP	41	0	2
TAP	41	72	3
TAP	41	144	2
HLD	41	144	5	96
TAP	41	288	6
TAP	42	0	4
TAP	42	0	5
TAP	42	72	3
HLD	42	144	2	96
TAP	42	144	5
TAP	42	288	1
TAP	43	0	1
TAP	43	0	7
TAP	43	72	0
TAP	43	72	6
TAP	43	144	3
TAP	43	144	5
TAP	43	288	2
TAP	43	288	4
TAP	44	0	2
TAP	44	0	4
TAP	44	72	1
TAP	44	72	3
TAP	44	144	0
TAP	44	144	6
TAP	44	288	3
TAP	44	288	4
TAP	45	0	1
TAP	45	0	4
TAP	45	96	3
TAP	45	96	6
TAP	45	192	1
TAP	45	192	5
TAP	45	288	2
TAP	45	288	6
HLD	46	0	6	96
TAP	46	96	5
HLD	46	192	0	96
TAP	46	288	1
TAP	47	0	3
TAP	47	0	7
TAP	47	192	1
TAP	47	192	5
STR	47	288	6
SCR	47	288	6	96	192	1
TAP	49	192	2
TAP	49	192	7
BRK	49	288	0
BRK	49	288	1
TAP	50	0	5
HLD	50	0	6	288
TAP	50	96	4
TAP	50	192	3
TAP	50	288	2
TAP	51	0	7
TAP	51	96	6
HLD	51	192	5	96
TAP	51	288	6
TAP	52	0	5
TAP	52	48	4
TAP	52	96	5
TAP	52	192	0
TAP	52	240	1
TAP	52	288	0
TAP	53	0	1
TAP	53	0	6
TAP	53	96	1
TAP	53	96	6
TAP	53	192	0
TAP	53	192	1
TAP	53	288	0
TAP	53	288	1
HLD	54	0	5	96
TAP	54	96	2
TAP	54	192	4
TAP	54	240	3
TAP	54	288	4
STR	55	0	1
SI_	55	0	1	96	96	6
TAP	55	192	2
TAP	55	288	1
TAP	56	0	5
TAP	56	0	6
TAP	56	96	1
TAP	56	96	2
STR	56	192	5
SI_	56	192	5	96	96	2
STR	56	192	6
SI_	56	192	6	96	96	1
TAP	57	96	1
TAP	57	96	2
TAP	57	192	2
TAP	57	192	3
TAP	57	288	4
TAP	57	288	5
BRK	58	0	2
BRK	58	0	3

T_REC_TAP	217
T_REC_BRK	7
T_REC_XTP	0
T_REC_HLD	31
T_REC_XHO	0
T_REC_STR	18
T_REC_BST	0
T_REC_XST	0
T_REC_TTP	0
T_REC_THO	0
T_REC_SLD	18
T_REC_ALL	291
T_NUM_TAP	235
T_NUM_BRK	7
T_NUM_HLD	31
T_NUM_SLD	18
T_NUM_ALL	291
T_JUDGE_TAP	242
T_JUDGE_HLD	83
T_JUDGE_SLD	18
T_JUDGE_ALL	343
TTM_EACHPAIRS	89
TTM_SCR_TAP	117500
TTM_SCR_BRK	18200
TTM_SCR_HLD	31000
TTM_SCR_SLD	27000
TTM_SCR_ALL	193700
TTM_SCR_S	187250
TTM_SCR_SS	193000
TTM_RAT_ACV	10036

