VERSION	0.00.00	1.03.00
FES_MODE	0
BPM_DEF	138.000	138.000	138.000	138.000
MET_DEF	4	4
RESOLUTION	384
CLK_DEF	384
COMPATIBLE_CODE	MA2

BPM	0	0	138.000
MET	0	0	4	4

TAP	4	0	7
TAP	4	96	0
TAP	4	192	1
TAP	4	288	2
TAP	5	0	6
TAP	5	96	6
TAP	5	192	6
TAP	5	288	6
TAP	6	0	7
TAP	6	96	6
TAP	6	192	7
TAP	6	288	6
HLD	7	0	5	96
HLD	7	192	4	96
HLD	8	0	3	96
TAP	8	288	1
TAP	8	288	6
TAP	9	0	0
TAP	9	96	1
TAP	9	192	0
TAP	9	288	0
TAP	10	0	7
TAP	10	96	6
TAP	10	192	5
TAP	10	288	6
HLD	11	0	4	96
HLD	11	192	0	96
TAP	12	0	2
TAP	12	0	5
TAP	12	96	2
TAP	12	96	5
TAP	12	192	0
TAP	12	192	7
TAP	12	288	0
TAP	12	288	7
TAP	13	0	1
HLD	13	96	2	192
TAP	13	192	1
TAP	13	288	1
TAP	14	0	0
TAP	14	96	7
TAP	14	192	6
TAP	14	288	5
HLD	15	0	6	192
STR	15	192	5
SI_	15	192	5	96	96	2
TAP	16	96	1
TAP	16	192	1
TAP	16	288	2
BRK	17	0	2
BRK	17	0	3
TAP	17	288	1
TAP	17	288	6
TAP	18	0	0
TAP	18	96	1
TAP	18	192	2
TAP	18	288	1
TAP	19	0	0
TAP	19	96	0
TAP	19	96	1
TAP	19	192	7
TAP	19	288	1
TAP	19	288	6
HLD	20	0	4	288
TAP	20	96	3
TAP	20	192	2
TAP	20	288	1
TAP	21	0	0
TAP	21	96	5
TAP	21	192	2
TAP	21	288	1
TAP	21	288	6
TAP	22	0	3
TAP	22	96	1
TAP	22	192	6
TAP	22	288	0
TAP	22	288	7
HLD	23	0	2	96
HLD	23	192	3	96
TAP	24	0	4
TAP	24	96	3
TAP	24	192	2
STR	24	288	1
SI_	24	288	1	96	192	6
STR	26	288	3
SI_	26	288	3	96	192	0
TAP	28	0	7
TAP	28	192	6
STR	29	0	5
SCR	29	0	5	96	192	0
HLD	31	0	1	96
HLD	31	192	2	96
HLD	32	0	3	192
TAP	33	0	7
TAP	33	96	7
TAP	33	192	6
TAP	33	288	6
TAP	34	0	5
TAP	34	96	5
TAP	34	192	4
TAP	34	288	2
TAP	34	288	5
TAP	35	0	3
TAP	35	96	3
TAP	35	192	2
TAP	35	288	2
TAP	36	0	1
TAP	36	96	1
TAP	36	192	0
TAP	36	288	0
TAP	36	288	7
HLD	37	0	1	288
TAP	38	0	3
TAP	38	0	4
TAP	38	72	4
TAP	38	72	5
TAP	38	144	3
TAP	38	144	4
TAP	38	288	0
HLD	39	0	2	96
HLD	39	192	6	96
TAP	40	0	0
TAP	40	96	1
TAP	40	192	2
TAP	40	288	3
TAP	41	0	4
TAP	41	72	4
BRK	41	144	4
TAP	42	0	6
TAP	42	72	6
BRK	42	144	6
TAP	43	0	0
TAP	43	72	1
BRK	43	144	2
TAP	44	0	4
TAP	44	72	5
BRK	44	144	4
TAP	45	0	0
TAP	45	96	1
TAP	45	192	2
TAP	45	288	3
TAP	46	0	6
TAP	46	96	6
TAP	46	192	2
TAP	46	288	2
TAP	47	0	4
TAP	47	0	5
TAP	47	192	0
TAP	47	192	1
STR	47	288	7
SCR	47	288	7	96	192	2
TAP	49	192	2
TAP	49	192	5
TAP	49	288	0
TAP	49	288	7
TAP	50	0	6
TAP	50	96	5
TAP	50	192	4
TAP	50	288	3
TAP	51	0	0
TAP	51	96	1
TAP	51	192	2
TAP	51	288	1
HLD	52	0	4	96
HLD	52	192	0	96
TAP	53	0	2
TAP	53	0	5
TAP	53	96	2
TAP	53	96	5
TAP	53	192	0
TAP	53	192	7
TAP	53	288	0
TAP	53	288	7
TAP	54	0	1
HLD	54	96	2	192
TAP	54	192	1
TAP	54	288	1
TAP	55	0	0
TAP	55	96	7
TAP	55	192	6
TAP	55	288	5
HLD	56	0	6	192
STR	56	192	5
SI_	56	192	5	96	96	2
TAP	57	96	1
TAP	57	192	1
TAP	57	288	2
BRK	58	0	2
BRK	58	0	3

T_REC_TAP	149
T_REC_BRK	8
T_REC_XTP	0
T_REC_HLD	20
T_REC_XHO	0
T_REC_STR	6
T_REC_BST	0
T_REC_XST	0
T_REC_TTP	0
T_REC_THO	0
T_REC_SLD	6
T_REC_ALL	189
T_NUM_TAP	155
T_NUM_BRK	8
T_NUM_HLD	20
T_NUM_SLD	6
T_NUM_ALL	189
T_JUDGE_TAP	163
T_JUDGE_HLD	58
T_JUDGE_SLD	6
T_JUDGE_ALL	227
TTM_EACHPAIRS	25
TTM_SCR_TAP	77500
TTM_SCR_BRK	20800
TTM_SCR_HLD	20000
TTM_SCR_SLD	9000
TTM_SCR_ALL	127300
TTM_SCR_S	122750
TTM_SCR_SS	126500
TTM_RAT_ACV	10063

