VERSION	0.00.00	1.03.00
FES_MODE	0
BPM_DEF	138.000	138.000	138.000	138.000
MET_DEF	4	4
RESOLUTION	384
CLK_DEF	384
COMPATIBLE_CODE	MA2

BPM	0	0	138.000
MET	0	0	4	4

HLD	1	0	7	288
HLD	2	0	0	288
HLD	3	0	1	288
TAP	4	0	1
TAP	4	96	2
TAP	4	192	3
TAP	4	288	4
TAP	5	0	6
TAP	5	96	6
TAP	5	192	6
TAP	5	288	6
TAP	6	0	0
TAP	6	96	6
TAP	6	192	0
TAP	6	288	6
TAP	7	0	2
TAP	7	96	1
TAP	7	192	5
TAP	7	288	6
TAP	8	0	3
TAP	8	0	4
TAP	8	96	2
TAP	8	96	5
TAP	8	192	1
TAP	8	192	6
BRK	8	288	0
TAP	9	0	6
TAP	9	96	2
TAP	9	192	4
TAP	9	288	4
TAP	10	0	2
TAP	10	96	1
TAP	10	192	4
TAP	10	288	5
TAP	11	0	4
TAP	11	96	5
TAP	11	192	0
TAP	11	192	1
TAP	11	288	0
TAP	11	288	1
TAP	12	0	1
TAP	12	0	6
TAP	12	96	1
TAP	12	96	6
TAP	12	192	0
TAP	12	288	0
TAP	13	0	4
TAP	13	96	3
TAP	13	192	3
TAP	13	192	4
TAP	13	288	3
TAP	13	288	4
HLD	14	0	4	96
HLD	14	0	7	96
HLD	14	192	1	96
TAP	15	0	6
TAP	15	96	1
STR	15	192	6
SI_	15	192	6	96	192	1
BRK	17	0	2
TAP	17	96	1
TAP	17	192	2
TAP	18	0	2
TAP	18	0	3
TAP	18	96	1
TAP	18	192	4
TAP	18	192	5
TAP	19	0	0
TAP	19	0	1
TAP	19	96	6
TAP	19	192	2
TAP	19	192	5
STR	20	0	3
SI_	20	0	3	96	192	0
TAP	21	0	0
TAP	21	0	5
TAP	21	96	4
TAP	21	96	7
TAP	21	192	1
TAP	21	192	5
TAP	22	0	1
TAP	22	0	6
TAP	22	96	2
TAP	22	192	1
TAP	22	192	6
TAP	22	288	5
TAP	23	0	0
TAP	23	0	6
TAP	23	96	7
TAP	23	192	0
TAP	23	192	6
TAP	24	0	2
TAP	24	96	3
TAP	24	192	4
TAP	24	288	5
TAP	25	0	1
TAP	25	0	6
TAP	25	192	2
TAP	25	192	5
HLD	26	0	3	192
HLD	26	0	4	192
STR	27	0	3
SI_	27	0	3	96	192	0
STR	27	0	4
SI_	27	0	4	96	192	7
TAP	28	0	0
TAP	28	0	7
TAP	28	96	0
TAP	28	96	7
TAP	28	192	1
TAP	28	192	6
HLD	29	0	1	192
HLD	29	0	6	192
TAP	30	96	1
TAP	30	96	5
TAP	30	288	2
TAP	30	288	6
TAP	31	96	0
TAP	31	96	5
TAP	31	288	2
TAP	31	288	7
TAP	32	96	7
TAP	32	288	1
TAP	32	288	6
TAP	33	0	3
TAP	33	0	4
TAP	33	96	1
TAP	33	96	6
TAP	33	192	0
TAP	33	192	7
TAP	33	288	1
TAP	33	288	6
TAP	34	0	0
TAP	34	96	7
TAP	34	192	0
TAP	34	192	4
TAP	34	288	0
TAP	35	0	0
TAP	35	0	4
TAP	35	96	1
TAP	35	192	2
TAP	35	288	3
TAP	35	288	7
TAP	36	0	0
TAP	36	96	1
TAP	36	192	7
TAP	36	288	6
TAP	37	0	3
TAP	37	96	2
HLD	37	192	1	96
TAP	38	0	0
TAP	38	96	5
HLD	38	192	2	96
HLD	39	0	0	96
HLD	39	192	7	96
STR	40	0	0
SI_	40	0	0	96	192	4
TAP	41	0	2
TAP	41	0	5
TAP	41	96	3
TAP	41	192	4
TAP	42	0	6
TAP	42	96	4
TAP	42	192	3
TAP	43	0	3
TAP	43	0	4
TAP	43	96	3
TAP	43	192	4
TAP	44	0	2
TAP	44	0	5
TAP	44	96	5
TAP	44	192	2
TAP	45	0	1
TAP	45	96	2
TAP	45	192	1
TAP	46	0	2
TAP	46	96	3
TAP	46	192	5
TAP	46	288	4
HLD	47	0	1	96
HLD	47	0	5	96
HLD	47	192	2	96
TAP	48	0	7
TAP	48	96	0
TAP	48	192	1
TAP	48	288	2
TAP	49	0	3
TAP	49	192	3
TAP	49	192	4
BRK	49	288	2
TAP	50	0	2
TAP	50	0	5
TAP	50	96	2
TAP	50	96	5
TAP	50	192	2
TAP	50	192	5
TAP	51	0	3
TAP	51	96	4
TAP	51	192	4
TAP	51	192	5
TAP	52	0	5
TAP	52	96	5
TAP	52	192	1
TAP	52	288	1
TAP	53	0	1
TAP	53	0	6
TAP	53	96	1
TAP	53	96	6
TAP	53	192	0
TAP	53	288	0
TAP	54	0	7
TAP	54	96	0
TAP	54	192	0
TAP	54	192	7
HLD	55	0	2	96
HLD	55	0	5	96
HLD	55	192	1	96
TAP	56	0	6
TAP	56	96	1
STR	56	192	6
SI_	56	192	6	96	192	1
BRK	58	0	2

T_REC_TAP	186
T_REC_BRK	4
T_REC_XTP	0
T_REC_HLD	20
T_REC_XHO	0
T_REC_STR	6
T_REC_BST	0
T_REC_XST	0
T_REC_TTP	0
T_REC_THO	0
T_REC_SLD	6
T_REC_ALL	222
T_NUM_TAP	192
T_NUM_BRK	4
T_NUM_HLD	20
T_NUM_SLD	6
T_NUM_ALL	222
T_JUDGE_TAP	196
T_JUDGE_HLD	60
T_JUDGE_SLD	6
T_JUDGE_ALL	262
TTM_EACHPAIRS	54
TTM_SCR_TAP	96000
TTM_SCR_BRK	10400
TTM_SCR_HLD	20000
TTM_SCR_SLD	9000
TTM_SCR_ALL	135400
TTM_SCR_S	130950
TTM_SCR_SS	135000
TTM_RAT_ACV	10029

