VERSION	0.00.00	1.03.00
FES_MODE	0
BPM_DEF	180.000	180.000	180.000	180.000
MET_DEF	4	4
RESOLUTION	384
CLK_DEF	384
COMPATIBLE_CODE	MA2

BPM	0	0	180.000
MET	0	0	4	4

TAP	2	0	1
TAP	2	48	1
TAP	2	288	0
TAP	3	0	6
TAP	3	48	6
TAP	3	240	7
TAP	3	336	1
TAP	4	48	1
TAP	4	240	0
TAP	4	336	6
TAP	5	48	6
TAP	5	96	6
TAP	5	192	5
TAP	5	288	4
TAP	6	0	1
TAP	6	0	3
TAP	6	288	2
TAP	7	0	4
TAP	7	0	5
TAP	7	48	4
TAP	7	48	5
TAP	7	240	5
TAP	7	336	1
TAP	7	336	3
TAP	8	48	1
TAP	8	48	3
TAP	8	240	2
TAP	8	336	2
TAP	9	48	1
TAP	9	48	7
TAP	9	96	0
TAP	9	96	6
BRK	9	192	0
BRK	9	192	7
BRK	9	288	0
BRK	9	288	7
TAP	10	0	4
TAP	10	48	2
TAP	10	144	1
TAP	10	240	7
TAP	10	336	5
TAP	11	48	6
TAP	11	96	6
TAP	11	192	0
TAP	11	240	7
TAP	11	288	0
TAP	12	48	1
TAP	12	96	1
TAP	12	192	7
TAP	12	240	0
TAP	12	288	7
TAP	13	48	6
TAP	13	144	6
TAP	13	192	4
TAP	13	240	3
TAP	13	288	4
TAP	14	0	3
TAP	14	48	5
TAP	14	144	6
TAP	14	240	0
TAP	14	336	2
TAP	15	48	1
TAP	15	96	1
TAP	15	192	7
TAP	15	240	0
TAP	15	288	7
TAP	16	48	6
TAP	16	96	6
TAP	16	192	0
TAP	16	240	7
TAP	16	288	0
TAP	16	336	5
TAP	17	48	0
TAP	17	48	6
TAP	17	96	1
TAP	17	96	7
TAP	17	192	0
TAP	17	288	0
TAP	18	0	4
TAP	18	0	5
TAP	18	96	3
TAP	18	144	2
TAP	18	240	2
TAP	18	240	5
TAP	18	336	6
TAP	19	48	5
TAP	19	96	4
TAP	19	192	3
BRK	19	288	0
BRK	19	288	7
TAP	20	0	2
TAP	20	0	3
TAP	20	96	4
TAP	20	144	5
TAP	20	240	2
TAP	20	240	5
TAP	20	336	1
TAP	21	48	2
TAP	21	96	3
TAP	21	192	4
BRK	21	288	0
BRK	21	288	7
HLD	22	0	6	336
STR	22	96	5
SI_	22	96	5	96	96	2
TAP	22	336	7
TAP	23	48	0
TAP	23	48	5
TAP	23	192	1
TAP	23	192	6
TAP	23	288	2
TAP	23	288	3
HLD	24	0	1	336
STR	24	96	7
SI_	24	96	7	96	96	3
TAP	24	336	0
TAP	25	48	1
TAP	25	48	4
TAP	25	192	2
TAP	25	192	5
TAP	25	288	4
TAP	25	288	5
HLD	26	0	4	336
STR	26	96	6
SCR	26	96	6	96	96	1
TAP	26	336	3
TAP	27	48	2
TAP	27	48	6
TAP	27	192	1
TAP	27	192	5
TAP	27	288	1
TAP	27	288	2
TAP	28	0	2
TAP	28	96	6
TAP	28	144	7
TAP	28	240	5
TAP	28	240	6
TAP	28	336	5
TAP	29	48	1
TAP	29	96	0
TAP	29	192	1
TAP	29	192	2
TAP	29	288	5
TAP	29	288	6
HLD	30	0	7	336
STR	30	96	6
SI_	30	96	6	96	96	3
TAP	30	336	2
HLD	31	48	0	144
TAP	31	192	6
TAP	31	288	1
TAP	31	288	2
HLD	32	0	0	336
STR	32	96	1
SI_	32	96	1	96	96	6
TAP	32	336	5
HLD	33	48	7	144
TAP	33	192	1
TAP	33	288	5
TAP	33	288	6
HLD	34	0	3	336
STR	34	96	2
SI_	34	96	2	96	96	7
TAP	34	336	6
HLD	35	48	4	144
TAP	35	192	2
TAP	35	288	0
TAP	35	288	1
TAP	36	0	4
TAP	36	96	3
TAP	36	144	3
TAP	36	240	5
TAP	36	336	2
TAP	37	48	6
TAP	37	96	7
TAP	37	192	6
TAP	37	192	7
BRK	37	288	0
BRK	37	288	7
TAP	38	0	5
TAP	38	96	2
TAP	38	192	3
TAP	38	240	4
HLD	38	336	1	336
TAP	39	0	0
TAP	39	96	6
TAP	39	192	0
TAP	39	288	6
TAP	40	0	6
TAP	40	96	1
TAP	40	192	0
TAP	40	240	7
HLD	40	336	2	336
TAP	41	0	0
TAP	41	96	6
TAP	41	192	0
TAP	41	288	6
TAP	42	0	1
TAP	42	0	5
TAP	42	96	2
TAP	42	96	6
BRK	42	192	0
BRK	42	192	7
BRK	42	240	0
BRK	42	240	7
TAP	42	336	1
TAP	42	336	6
TAP	43	96	2
TAP	43	96	5
BRK	43	192	0
BRK	43	192	7
BRK	43	240	0
BRK	43	240	7
TAP	43	336	3
TAP	43	336	5
TAP	44	96	2
TAP	44	96	4
BRK	44	192	0
BRK	44	192	7
BRK	44	240	0
BRK	44	240	7
TAP	44	336	5
TAP	44	336	7
TAP	45	96	0
TAP	45	96	2
BRK	45	192	0
BRK	45	192	7
BRK	45	240	0
BRK	45	240	7
TAP	45	336	2
HLD	46	0	6	96
HLD	46	96	1	96
HLD	46	192	5	96
HLD	46	288	2	96
HLD	47	0	7	96
HLD	47	96	0	96
HLD	47	192	4	96
HLD	47	288	3	96
HLD	48	0	5	96
HLD	48	96	6	96
HLD	48	192	7	96
HLD	48	288	0	288
HLD	49	0	1	192
TAP	49	240	1
TAP	49	288	0
TAP	49	336	7
TAP	50	96	5
TAP	50	96	7
TAP	50	192	5
TAP	50	192	7
TAP	50	240	6
TAP	50	288	7
TAP	50	336	0
TAP	51	96	0
TAP	51	96	2
TAP	51	192	0
TAP	51	192	2
TAP	51	240	1
TAP	51	288	0
TAP	51	336	7
TAP	52	96	3
TAP	52	96	5
TAP	52	192	2
TAP	52	192	4
TAP	52	288	3
TAP	52	336	2
TAP	53	0	1
TAP	53	96	0
TAP	53	192	7
BRK	53	336	0
BRK	53	336	7
TAP	54	48	0
TAP	54	48	6
BRK	54	96	0
BRK	54	96	7
TAP	55	0	5
TAP	55	0	7
TAP	55	48	6
TAP	55	48	7
TAP	55	144	0
TAP	55	144	1
TAP	55	240	2
TAP	55	240	6
TAP	55	336	3
TAP	55	336	4
TAP	56	48	1
TAP	56	48	6
TAP	56	144	6
TAP	56	192	7
TAP	56	288	0
TAP	56	288	1
TAP	57	0	0
TAP	57	0	2
TAP	57	48	0
TAP	57	48	1
TAP	57	144	6
TAP	57	144	7
TAP	57	240	1
TAP	57	240	5
TAP	57	336	3
TAP	57	336	4
TAP	58	48	1
TAP	58	48	6
TAP	58	144	1
TAP	58	192	0
TAP	58	288	6
TAP	58	288	7
TAP	59	0	5
TAP	59	48	4
TAP	59	144	3
TAP	59	144	6
TAP	59	240	2
TAP	59	240	5
TAP	59	336	1
TAP	59	336	4
TAP	60	48	0
TAP	60	48	3
TAP	60	144	6
TAP	60	192	7
BRK	60	288	0
BRK	60	288	7
TAP	61	0	0
TAP	61	0	4
TAP	61	96	2
TAP	61	96	6
TAP	61	192	1
TAP	61	192	5
TAP	61	240	1
TAP	61	336	6
TAP	62	48	1
TAP	62	48	5
TAP	62	96	5
TAP	62	192	2
TAP	62	192	5
BRK	62	288	0
BRK	62	288	7
TAP	63	0	5
TAP	63	0	7
TAP	63	48	6
TAP	63	48	7
TAP	63	144	0
TAP	63	144	4
TAP	63	240	2
TAP	63	240	6
TAP	63	336	3
TAP	63	336	7
TAP	64	48	2
TAP	64	48	6
TAP	64	144	6
TAP	64	192	3
TAP	64	192	7
TAP	64	288	0
TAP	64	288	1
TAP	65	0	0
TAP	65	0	2
TAP	65	48	0
TAP	65	48	1
TAP	65	144	3
TAP	65	144	7
TAP	65	240	1
TAP	65	240	5
TAP	65	336	3
TAP	65	336	7
TAP	66	48	1
TAP	66	48	5
TAP	66	144	1
TAP	66	192	0
TAP	66	192	4
TAP	66	288	6
TAP	66	288	7
TAP	67	0	2
TAP	67	48	3
TAP	67	144	4
TAP	67	144	7
TAP	67	240	0
TAP	67	240	5
TAP	67	336	1
TAP	67	336	6
TAP	68	48	2
TAP	68	48	7
TAP	68	144	3
TAP	68	192	0
TAP	68	192	4
STR	68	336	5
SCL	68	336	5	96	144	2
TAP	69	48	1
TAP	69	96	1
TAP	69	192	0
TAP	69	288	2
TAP	69	288	6
TAP	69	336	0
TAP	69	336	5
TAP	70	96	3
TAP	70	192	1
TAP	70	288	6
TAP	71	0	0
TAP	71	0	4
TAP	71	48	2
TAP	71	48	6
TAP	71	144	1
TAP	71	240	3
TAP	71	240	7
TAP	71	336	5
TAP	72	48	6
TAP	72	96	6
TAP	72	192	0
TAP	72	240	3
TAP	72	240	7
TAP	72	288	0
TAP	73	48	1
TAP	73	96	1
TAP	73	192	7
TAP	73	240	0
TAP	73	240	4
TAP	73	288	7
TAP	74	48	2
TAP	74	48	6
TAP	74	144	2
TAP	74	144	6
TAP	74	192	4
TAP	74	240	3
TAP	74	240	7
BRK	74	288	0
BRK	74	288	7

T_REC_TAP	350
T_REC_BRK	36
T_REC_XTP	0
T_REC_HLD	24
T_REC_XHO	0
T_REC_STR	7
T_REC_BST	0
T_REC_XST	0
T_REC_TTP	0
T_REC_THO	0
T_REC_SLD	7
T_REC_ALL	424
T_NUM_TAP	357
T_NUM_BRK	36
T_NUM_HLD	24
T_NUM_SLD	7
T_NUM_ALL	424
T_JUDGE_TAP	393
T_JUDGE_HLD	97
T_JUDGE_SLD	7
T_JUDGE_ALL	497
TTM_EACHPAIRS	116
TTM_SCR_TAP	178500
TTM_SCR_BRK	93600
TTM_SCR_HLD	24000
TTM_SCR_SLD	10500
TTM_SCR_ALL	306600
TTM_SCR_S	293950
TTM_SCR_SS	303000
TTM_RAT_ACV	10118

