VERSION	0.00.00	1.03.00
FES_MODE	0
BPM_DEF	180.000	180.000	180.000	180.000
MET_DEF	4	4
RESOLUTION	384
CLK_DEF	384
COMPATIBLE_CODE	MA2

BPM	0	0	180.000
MET	0	0	4	4

TAP	2	0	0
TAP	2	0	7
TAP	2	288	1
TAP	2	288	7
TAP	3	0	0
TAP	3	0	6
TAP	3	240	1
TAP	3	240	7
HLD	3	336	0	96
HLD	3	336	6	96
TAP	4	240	0
TAP	4	240	7
HLD	4	336	1	96
HLD	4	336	6	96
TAP	5	192	0
TAP	5	288	7
TAP	6	0	1
TAP	6	0	6
TAP	6	288	1
TAP	6	288	5
TAP	7	0	2
TAP	7	0	6
TAP	7	240	1
TAP	7	240	5
HLD	7	336	2	96
HLD	7	336	6	96
TAP	8	240	2
TAP	8	240	5
TAP	8	336	3
TAP	8	336	4
TAP	9	96	3
TAP	9	96	4
TAP	9	192	1
TAP	9	192	6
TAP	10	0	1
TAP	10	96	3
TAP	10	192	5
TAP	10	288	3
TAP	10	288	6
TAP	11	0	5
TAP	11	96	4
TAP	11	192	2
TAP	11	288	2
TAP	12	0	5
TAP	12	96	4
TAP	12	192	3
TAP	12	288	2
TAP	12	288	4
TAP	13	0	1
TAP	13	96	0
TAP	13	192	1
TAP	13	288	0
TAP	14	0	1
TAP	14	0	5
STR	14	96	2
SCL	14	96	2	96	96	7
STR	14	96	6
SCL	14	96	6	96	96	3
TAP	15	96	0
TAP	15	96	7
TAP	15	192	0
TAP	15	288	7
HLD	16	0	0	96
HLD	16	96	1	96
HLD	16	192	2	96
HLD	16	288	3	96
HLD	17	0	4	96
HLD	17	96	5	96
HLD	17	192	6	96
STR	17	288	7
SI_	17	288	7	96	192	4
TAP	18	336	2
TAP	19	48	3
TAP	19	96	2
TAP	19	192	1
TAP	19	192	5
TAP	20	0	1
TAP	20	96	1
TAP	20	144	0
TAP	20	240	0
TAP	20	240	1
TAP	20	336	0
TAP	21	48	4
TAP	21	96	3
TAP	21	192	2
TAP	21	192	5
TAP	22	0	3
TAP	22	0	4
TAP	22	96	3
TAP	22	96	4
TAP	22	192	2
TAP	22	192	4
TAP	22	288	3
TAP	22	288	4
TAP	23	0	3
TAP	23	0	4
TAP	23	96	3
TAP	23	96	4
TAP	23	192	2
TAP	23	192	4
TAP	23	288	3
TAP	23	288	4
TAP	24	0	1
TAP	24	0	4
TAP	24	96	1
TAP	24	96	4
TAP	24	192	1
TAP	24	192	3
TAP	24	288	1
TAP	24	288	3
TAP	25	0	1
TAP	25	0	5
TAP	25	96	1
TAP	25	96	5
TAP	25	192	1
TAP	25	192	4
TAP	25	288	1
TAP	25	288	4
HLD	26	0	0	96
TAP	26	96	7
TAP	26	192	0
TAP	26	240	7
TAP	26	288	0
HLD	27	0	7	96
TAP	27	96	0
TAP	27	192	7
TAP	27	240	0
TAP	27	288	7
HLD	28	1	1	95
TAP	28	96	6
HLD	28	192	0	95
HLD	28	192	7	95
TAP	29	0	6
TAP	29	96	0
TAP	29	96	7
TAP	29	192	1
TAP	29	192	5
TAP	30	0	3
TAP	30	0	4
TAP	30	96	3
TAP	30	96	4
TAP	30	192	2
TAP	30	192	5
TAP	30	288	3
TAP	30	288	4
TAP	31	0	3
TAP	31	0	4
TAP	31	96	3
TAP	31	96	4
TAP	31	192	2
TAP	31	192	5
TAP	31	288	3
TAP	31	288	4
TAP	32	0	2
HLD	32	0	4	96
TAP	32	96	2
HLD	32	192	3	96
TAP	32	192	5
TAP	32	288	5
TAP	33	0	1
HLD	33	0	4	96
TAP	33	96	1
HLD	33	192	3	96
TAP	33	192	6
TAP	33	288	6
HLD	34	0	0	96
TAP	34	96	7
TAP	34	192	0
TAP	34	240	7
TAP	34	288	0
HLD	35	0	7	96
TAP	35	96	0
TAP	35	192	6
TAP	35	240	1
TAP	35	288	6
HLD	36	1	1	95
TAP	36	96	6
HLD	36	192	0	95
HLD	36	192	7	95
TAP	37	0	6
TAP	37	96	0
TAP	37	96	7
TAP	37	192	1
TAP	37	192	5
HLD	38	0	1	192
HLD	38	0	5	192
HLD	39	0	2	192
HLD	39	0	6	192
HLD	40	0	0	96
HLD	40	192	7	96
HLD	41	0	3	96
HLD	41	0	4	96
TAP	41	192	1
TAP	41	192	6
HLD	42	0	2	96
HLD	42	0	6	96
TAP	42	192	5
TAP	42	192	6
HLD	43	0	0	96
HLD	43	0	2	96
TAP	43	192	2
TAP	43	192	6
TAP	44	0	3
TAP	44	96	4
TAP	44	192	2
TAP	44	288	5
TAP	45	0	1
HLD	45	0	2	288
TAP	45	96	0
TAP	45	192	1
TAP	45	288	0
TAP	46	0	4
HLD	46	0	5	96
TAP	46	96	6
TAP	46	192	5
HLD	47	0	2	96
TAP	47	0	3
TAP	47	96	1
TAP	47	192	2
HLD	48	0	0	288
HLD	48	0	1	288
TAP	49	0	2
TAP	49	0	5
TAP	49	96	2
TAP	49	96	5
HLD	49	336	5	240
TAP	50	96	1
TAP	50	192	1
HLD	50	336	7	240
TAP	51	96	0
TAP	51	192	0
TAP	51	336	3
TAP	51	336	4
TAP	52	96	2
TAP	52	144	1
TAP	52	240	0
TAP	52	240	6
HLD	52	336	2	240
HLD	52	336	5	240
TAP	53	336	7
BRK	54	96	0
BRK	54	96	7
STR	54	288	2
SCR	54	288	2	96	96	5
HLD	55	0	6	192
TAP	55	192	0
TAP	55	288	1
STR	56	0	4
SI_	56	0	4	96	96	0
HLD	56	96	5	192
TAP	57	0	1
TAP	57	96	1
TAP	57	192	2
TAP	57	192	3
TAP	57	288	3
TAP	57	288	4
TAP	58	0	4
TAP	58	0	5
TAP	58	96	1
TAP	58	96	6
TAP	58	192	1
TAP	59	0	3
TAP	59	0	6
TAP	59	96	2
TAP	59	96	5
TAP	59	192	1
TAP	59	192	4
TAP	60	0	1
HLD	60	0	5	96
HLD	60	96	1	96
TAP	60	192	0
STR	61	0	7
SCL	61	0	7	96	48	4
STR	61	192	3
SI_	61	192	3	96	48	0
STR	62	288	2
SCR	62	288	2	96	96	5
HLD	63	0	6	192
TAP	63	192	0
TAP	63	288	1
STR	64	0	4
SI_	64	0	4	96	96	0
HLD	64	96	5	192
HLD	65	0	0	96
HLD	65	0	1	96
TAP	65	192	0
TAP	65	192	7
TAP	65	288	6
TAP	65	288	7
HLD	66	96	0	96
TAP	66	96	7
TAP	66	192	1
TAP	67	0	4
TAP	67	0	6
TAP	67	96	3
TAP	67	96	5
TAP	67	192	4
TAP	67	192	5
TAP	68	0	1
TAP	68	0	3
TAP	68	96	2
TAP	68	96	4
TAP	68	192	2
TAP	68	192	3
HLD	69	0	2	192
HLD	69	0	5	192
TAP	69	288	7
TAP	69	336	0
TAP	70	96	0
TAP	70	96	1
TAP	70	192	2
TAP	70	192	6
TAP	70	288	3
TAP	70	288	7
HLD	71	0	0	192
STR	71	288	4
SI_	71	288	4	96	192	0
TAP	72	288	2
TAP	72	288	6
TAP	73	0	5
TAP	73	96	4
TAP	73	192	3
STR	73	288	2
SI_	73	288	2	96	192	5
BRK	75	0	1
BRK	75	0	5

T_REC_TAP	240
T_REC_BRK	4
T_REC_XTP	0
T_REC_HLD	60
T_REC_XHO	0
T_REC_STR	11
T_REC_BST	0
T_REC_XST	0
T_REC_TTP	0
T_REC_THO	0
T_REC_SLD	11
T_REC_ALL	326
T_NUM_TAP	251
T_NUM_BRK	4
T_NUM_HLD	60
T_NUM_SLD	11
T_NUM_ALL	326
T_JUDGE_TAP	255
T_JUDGE_HLD	166
T_JUDGE_SLD	11
T_JUDGE_ALL	432
TTM_EACHPAIRS	100
TTM_SCR_TAP	125500
TTM_SCR_BRK	10400
TTM_SCR_HLD	60000
TTM_SCR_SLD	16500
TTM_SCR_ALL	212400
TTM_SCR_S	205650
TTM_SCR_SS	212000
TTM_RAT_ACV	10018

