VERSION	0.00.00	1.03.00
FES_MODE	0
BPM_DEF	180.000	180.000	180.000	180.000
MET_DEF	4	4
RESOLUTION	384
CLK_DEF	384
COMPATIBLE_CODE	MA2

BPM	0	0	180.000
MET	0	0	4	4

STR	1	0	6
SI_	1	0	6	96	192	2
TAP	2	0	1
TAP	2	288	7
TAP	3	0	6
TAP	3	288	4
TAP	4	0	3
TAP	4	288	1
TAP	5	0	0
TAP	5	192	4
TAP	5	288	5
TAP	6	0	6
TAP	6	288	0
TAP	7	0	1
TAP	7	288	3
TAP	8	0	4
TAP	8	288	6
TAP	9	0	7
TAP	9	96	7
TAP	9	192	0
TAP	9	192	7
HLD	10	0	6	95
HLD	10	192	5	96
TAP	11	0	4
TAP	11	192	3
HLD	12	0	1	96
HLD	12	192	2	96
TAP	13	0	3
TAP	13	192	4
HLD	14	0	6	96
HLD	14	192	5	96
TAP	15	0	4
TAP	15	96	3
TAP	15	192	2
HLD	16	0	1	96
HLD	16	192	2	97
TAP	17	0	3
TAP	17	96	4
TAP	17	192	5
HLD	18	0	3	96
HLD	18	192	2	96
TAP	19	0	1
TAP	19	96	0
TAP	19	192	7
HLD	20	0	4	96
HLD	20	192	5	96
TAP	21	0	6
TAP	21	96	7
BRK	21	192	0
TAP	22	96	0
TAP	22	192	7
TAP	22	288	6
TAP	23	96	6
TAP	23	192	5
TAP	23	288	4
TAP	24	96	7
TAP	24	192	0
TAP	24	288	1
TAP	25	96	1
TAP	25	192	2
TAP	25	288	3
TAP	26	96	3
TAP	26	192	2
TAP	26	288	1
TAP	27	96	1
TAP	27	192	0
TAP	27	288	7
TAP	28	96	4
TAP	28	192	5
TAP	28	288	6
TAP	29	96	6
TAP	29	192	7
TAP	29	288	0
TAP	30	96	0
TAP	30	192	7
TAP	30	288	0
TAP	30	288	6
TAP	31	96	5
TAP	31	192	4
TAP	31	288	3
TAP	31	288	5
TAP	32	96	7
TAP	32	192	0
TAP	32	288	1
TAP	32	288	7
TAP	33	96	2
TAP	33	192	3
TAP	33	288	2
TAP	33	288	4
TAP	34	96	0
TAP	34	96	6
TAP	34	192	7
TAP	34	288	0
TAP	34	288	6
TAP	35	96	3
TAP	35	96	5
TAP	35	192	4
TAP	35	288	3
TAP	35	288	5
TAP	36	96	1
TAP	36	96	7
TAP	36	192	0
TAP	36	288	1
TAP	36	288	7
TAP	37	96	2
TAP	37	96	4
TAP	37	192	3
TAP	37	288	2
TAP	37	288	4
HLD	38	0	1	288
TAP	38	192	0
TAP	38	288	7
HLD	39	0	6	288
TAP	39	192	7
TAP	39	288	0
HLD	40	0	1	288
TAP	40	192	0
TAP	40	288	7
HLD	41	0	6	288
TAP	41	192	7
TAP	41	288	0
HLD	42	0	7	96
TAP	42	96	2
TAP	42	192	1
HLD	43	0	0	96
TAP	43	96	5
TAP	43	192	6
TAP	44	0	5
STR	44	96	5
SI_	44	96	5	96	96	1
TAP	45	0	2
STR	45	96	2
SI_	45	96	2	96	96	6
TAP	46	0	6
TAP	46	96	7
HLD	46	192	0	96
HLD	46	192	7	96
TAP	47	0	1
TAP	47	96	0
HLD	47	192	0	96
HLD	47	192	6	96
TAP	48	0	5
TAP	48	96	6
HLD	48	192	1	96
HLD	48	192	7	96
TAP	49	0	2
TAP	49	96	1
HLD	49	192	0	96
HLD	49	192	7	96
TAP	50	96	5
TAP	50	192	6
TAP	50	240	7
TAP	50	288	7
TAP	51	96	2
TAP	51	192	1
TAP	51	240	0
TAP	51	288	0
TAP	52	96	5
TAP	52	96	7
TAP	52	192	6
TAP	52	288	5
TAP	52	288	7
STR	53	0	5
SI_	53	0	5	96	96	2
TAP	53	288	1
BRK	53	336	1
TAP	54	192	0
TAP	54	192	2
TAP	54	288	1
TAP	54	288	7
STR	55	0	1
SI_	55	0	1	96	95	4
TAP	55	288	5
STR	56	0	6
SI_	56	0	6	96	95	3
TAP	56	288	2
TAP	57	0	3
TAP	57	96	4
TAP	57	192	5
TAP	57	288	6
HLD	58	0	7	96
HLD	58	191	7	97
TAP	59	0	0
TAP	59	96	0
TAP	59	192	0
TAP	59	192	2
TAP	60	0	7
TAP	60	96	7
TAP	60	192	5
TAP	60	192	7
TAP	61	0	2
TAP	61	96	1
HLD	61	192	7	96
TAP	61	336	7
TAP	62	48	0
TAP	62	96	0
TAP	62	192	1
TAP	62	192	7
TAP	62	288	0
TAP	62	288	6
STR	63	0	1
SI_	63	0	1	96	95	4
TAP	63	288	5
STR	64	0	6
SI_	64	0	6	96	95	3
TAP	64	288	2
TAP	65	0	4
TAP	65	96	3
TAP	65	192	0
TAP	65	192	2
TAP	65	288	1
TAP	65	288	7
HLD	66	0	0	288
TAP	66	0	7
TAP	66	96	6
TAP	66	192	5
TAP	67	0	3
TAP	67	0	5
TAP	67	96	4
TAP	67	96	6
TAP	67	192	5
TAP	67	192	7
TAP	68	0	2
TAP	68	0	4
TAP	68	96	1
TAP	68	96	3
TAP	68	192	0
TAP	68	192	2
TAP	69	0	4
TAP	69	0	6
TAP	69	96	5
TAP	69	96	7
TAP	69	192	0
TAP	69	192	6
TAP	69	288	0
TAP	69	336	0
HLD	70	48	7	240
TAP	70	96	1
TAP	70	192	1
TAP	70	288	1
HLD	71	0	6	192
TAP	71	288	0
HLD	71	336	7	336
TAP	73	96	0
TAP	73	96	6
TAP	73	192	1
TAP	73	192	7
TAP	73	288	0
TAP	73	288	6
TAP	74	96	1
TAP	74	192	6
TAP	74	288	0
BRK	75	0	7

T_REC_TAP	201
T_REC_BRK	3
T_REC_XTP	0
T_REC_HLD	33
T_REC_XHO	0
T_REC_STR	8
T_REC_BST	0
T_REC_XST	0
T_REC_TTP	0
T_REC_THO	0
T_REC_SLD	8
T_REC_ALL	253
T_NUM_TAP	209
T_NUM_BRK	3
T_NUM_HLD	33
T_NUM_SLD	8
T_NUM_ALL	253
T_JUDGE_TAP	212
T_JUDGE_HLD	98
T_JUDGE_SLD	8
T_JUDGE_ALL	318
TTM_EACHPAIRS	40
TTM_SCR_TAP	104500
TTM_SCR_BRK	7800
TTM_SCR_HLD	33000
TTM_SCR_SLD	12000
TTM_SCR_ALL	157300
TTM_SCR_S	152300
TTM_SCR_SS	157000
TTM_RAT_ACV	10019

