VERSION	0.00.00	1.03.00
FES_MODE	0
BPM_DEF	180.000	180.000	180.000	180.000
MET_DEF	4	4
RESOLUTION	384
CLK_DEF	384
COMPATIBLE_CODE	MA2

BPM	0	0	180.000
MET	0	0	4	4

TAP	2	0	0
TAP	2	0	7
TAP	2	288	6
TAP	3	0	7
TAP	3	288	6
TAP	4	0	7
TAP	4	288	0
TAP	4	288	7
TAP	5	0	0
TAP	5	0	7
TAP	5	288	0
TAP	5	288	7
TAP	6	0	1
TAP	6	0	6
TAP	6	288	1
TAP	7	0	2
TAP	7	288	5
TAP	8	0	6
TAP	8	288	6
TAP	9	0	6
TAP	9	96	2
TAP	9	96	5
TAP	9	192	2
TAP	9	192	5
TAP	10	0	1
TAP	10	192	3
TAP	11	0	5
TAP	11	192	5
TAP	12	0	4
TAP	12	192	3
TAP	13	0	2
TAP	13	192	2
TAP	13	288	2
STR	14	0	6
SI_	14	0	6	96	192	1
TAP	15	192	3
TAP	15	288	4
TAP	16	0	0
TAP	16	96	1
TAP	16	192	2
TAP	16	288	3
TAP	17	0	4
TAP	17	96	5
TAP	17	192	6
TAP	17	288	7
STR	18	0	0
SI_	18	0	0	96	192	3
TAP	19	0	2
TAP	19	96	2
TAP	19	192	1
HLD	20	0	5	288
TAP	21	0	1
TAP	21	96	0
BRK	21	192	1
TAP	22	0	3
TAP	22	96	3
TAP	22	192	2
TAP	23	0	3
TAP	23	96	3
TAP	23	192	2
TAP	24	0	1
TAP	24	96	1
TAP	24	192	0
TAP	24	288	0
TAP	25	0	1
TAP	25	96	1
TAP	25	192	0
TAP	26	0	3
TAP	26	96	4
TAP	26	192	3
TAP	27	0	3
TAP	27	96	4
TAP	27	192	3
TAP	28	0	3
TAP	28	96	4
TAP	28	192	3
TAP	28	192	4
TAP	29	0	1
TAP	29	0	6
TAP	29	96	1
TAP	29	96	6
TAP	29	192	0
TAP	29	192	5
TAP	30	0	3
TAP	30	96	3
TAP	30	192	2
TAP	31	0	3
TAP	31	96	3
TAP	31	192	2
TAP	32	0	1
TAP	32	96	1
TAP	32	192	0
TAP	32	288	0
TAP	33	0	1
TAP	33	96	1
TAP	33	192	0
TAP	34	0	0
TAP	34	96	7
TAP	34	192	0
TAP	35	0	0
TAP	35	96	7
TAP	35	192	0
TAP	36	0	0
TAP	36	96	7
TAP	36	192	0
TAP	36	192	7
TAP	37	0	1
TAP	37	0	6
TAP	37	96	1
TAP	37	96	6
BRK	37	192	0
BRK	37	192	5
HLD	38	0	0	192
HLD	38	0	5	192
HLD	39	0	2	192
HLD	39	0	7	192
HLD	40	0	0	96
HLD	40	192	7	96
HLD	41	0	3	96
HLD	41	0	4	96
TAP	41	192	2
TAP	41	192	5
TAP	42	0	3
TAP	42	0	7
TAP	42	192	4
TAP	43	0	7
TAP	43	192	2
TAP	43	192	6
TAP	44	0	4
TAP	44	96	3
TAP	44	192	4
TAP	44	288	3
TAP	45	0	1
TAP	45	96	1
TAP	45	192	1
TAP	46	0	5
TAP	46	96	6
TAP	46	192	5
TAP	47	0	2
TAP	47	96	1
TAP	47	192	2
HLD	48	0	1	192
HLD	48	0	2	192
TAP	49	0	1
TAP	49	96	1
HLD	50	0	5	192
TAP	51	0	2
TAP	51	96	1
TAP	51	192	2
TAP	52	0	3
TAP	52	0	4
TAP	52	96	2
TAP	52	96	5
TAP	52	192	1
TAP	52	192	6
HLD	53	0	2	192
HLD	53	0	5	192
BRK	54	0	0
BRK	54	0	7
TAP	55	0	4
TAP	55	192	7
TAP	56	0	3
HLD	56	192	0	96
TAP	57	0	6
TAP	57	96	6
STR	57	192	2
SI_	57	192	2	96	96	5
TAP	58	192	6
TAP	59	0	1
TAP	59	96	6
TAP	59	192	1
TAP	59	288	6
TAP	60	0	1
TAP	60	96	0
TAP	60	192	1
TAP	60	192	5
TAP	61	0	7
TAP	61	96	5
TAP	61	192	3
TAP	61	288	1
STR	62	0	0
SI_	62	0	0	96	96	3
TAP	63	0	4
TAP	63	192	7
TAP	64	0	3
HLD	64	192	0	96
TAP	65	0	6
TAP	65	96	6
STR	65	192	2
SI_	65	192	2	96	96	5
TAP	66	192	6
TAP	67	0	0
TAP	67	96	1
TAP	67	192	0
STR	68	0	1
SI_	68	0	1	96	96	6
HLD	69	0	2	192
HLD	69	0	5	192
TAP	70	0	1
TAP	70	96	2
TAP	70	192	1
HLD	71	0	5	192
STR	71	288	4
SI_	71	288	4	96	192	0
TAP	72	288	2
TAP	72	288	6
STR	73	288	5
SI_	73	288	5	96	192	2
BRK	75	0	1
TAP	75	0	5

T_REC_TAP	169
T_REC_BRK	6
T_REC_XTP	0
T_REC_HLD	19
T_REC_XHO	0
T_REC_STR	8
T_REC_BST	0
T_REC_XST	0
T_REC_TTP	0
T_REC_THO	0
T_REC_SLD	8
T_REC_ALL	210
T_NUM_TAP	177
T_NUM_BRK	6
T_NUM_HLD	19
T_NUM_SLD	8
T_NUM_ALL	210
T_JUDGE_TAP	183
T_JUDGE_HLD	66
T_JUDGE_SLD	8
T_JUDGE_ALL	257
TTM_EACHPAIRS	31
TTM_SCR_TAP	88500
TTM_SCR_BRK	15600
TTM_SCR_HLD	19000
TTM_SCR_SLD	12000
TTM_SCR_ALL	135100
TTM_SCR_S	130500
TTM_SCR_SS	134500
TTM_RAT_ACV	10044

