VERSION	0.00.00	1.03.00
FES_MODE	0
BPM_DEF	140.000	140.000	140.000	140.000
MET_DEF	4	4
RESOLUTION	384
CLK_DEF	384
COMPATIBLE_CODE	MA2

BPM	0	0	140.000
MET	0	0	4	4

HLD	2	0	5	288
TAP	2	96	0
TAP	2	192	2
TAP	2	288	6
TAP	3	0	4
TAP	3	96	1
TAP	3	96	2
TAP	3	192	3
TAP	3	288	5
TAP	3	288	6
HLD	4	0	1	288
TAP	4	96	4
TAP	4	192	6
TAP	4	288	2
TAP	5	0	1
TAP	5	96	5
TAP	5	96	7
TAP	5	192	6
TAP	5	288	0
TAP	5	288	2
TAP	6	0	0
HLD	6	0	7	288
TAP	6	96	2
TAP	6	192	5
TAP	6	288	0
TAP	7	0	2
TAP	7	96	0
TAP	7	96	7
TAP	7	168	7
TAP	7	192	0
TAP	7	288	6
TAP	7	336	6
TAP	7	336	7
TAP	8	0	4
TAP	8	0	5
TAP	8	96	4
TAP	8	96	5
TAP	8	192	5
TAP	8	192	6
TAP	8	288	5
TAP	8	288	6
TAP	9	0	6
TAP	9	0	7
TAP	9	96	6
TAP	9	96	7
TAP	9	192	0
TAP	9	192	1
TAP	9	288	0
TAP	9	288	7
STR	10	0	6
SI_	10	0	6	96	48	2
TAP	10	192	0
TAP	10	192	1
TAP	10	288	4
TAP	10	288	5
TAP	11	0	0
TAP	11	0	6
TAP	11	96	1
TAP	11	96	7
TAP	11	192	5
TAP	11	240	4
TAP	11	288	3
TAP	11	336	2
STR	12	0	1
SI_	12	0	1	96	48	5
TAP	12	192	6
TAP	12	192	7
TAP	12	288	2
TAP	12	288	3
TAP	13	0	1
TAP	13	0	7
TAP	13	96	0
TAP	13	96	6
TAP	13	192	2
TAP	13	240	3
TAP	13	288	4
TAP	13	336	5
STR	14	0	7
SI_	14	0	7	96	48	3
STR	14	96	0
SI_	14	96	0	96	48	4
TAP	14	288	0
TAP	14	288	7
TAP	15	0	1
TAP	15	0	5
TAP	15	96	2
TAP	15	96	6
TAP	15	192	1
TAP	15	240	0
TAP	15	288	7
TAP	15	336	6
TAP	16	0	3
TAP	16	0	5
HLD	16	96	4	96
TAP	16	192	2
HLD	16	288	3	96
TAP	17	0	5
HLD	17	96	6	96
TAP	17	192	7
TAP	17	240	0
TAP	17	288	1
TAP	17	336	2
HLD	18	0	2	288
TAP	18	96	7
HLD	18	192	5	192
HLD	19	0	1	288
TAP	19	96	5
HLD	19	192	2	192
HLD	20	0	5	192
TAP	20	96	6
HLD	20	192	7	192
TAP	20	288	0
HLD	21	0	1	192
TAP	21	96	0
HLD	21	192	2	192
TAP	21	288	1
HLD	22	0	5	288
TAP	22	96	7
HLD	22	192	2	192
HLD	23	0	6	288
TAP	23	96	2
HLD	23	192	5	192
HLD	24	0	2	192
TAP	24	96	3
HLD	24	192	4	192
TAP	24	288	5
HLD	25	0	6	192
TAP	25	96	7
HLD	25	192	0	96
TAP	25	288	1
HLD	26	0	2	288
TAP	26	0	6
TAP	26	96	7
TAP	26	192	6
TAP	26	288	7
HLD	27	0	1	288
TAP	27	0	5
TAP	27	96	6
TAP	27	192	5
TAP	27	288	6
TAP	28	0	2
HLD	28	0	6	192
TAP	28	96	1
HLD	28	192	0	96
TAP	28	288	4
TAP	29	0	1
HLD	29	0	4	288
TAP	29	96	2
TAP	29	192	1
TAP	29	288	2
HLD	30	0	3	288
TAP	30	0	7
TAP	30	96	6
TAP	30	192	7
TAP	30	288	6
HLD	31	0	0	96
TAP	31	0	1
TAP	31	96	2
TAP	31	192	3
HLD	31	192	7	96
TAP	31	288	4
TAP	32	0	1
HLD	32	0	5	192
TAP	32	96	0
TAP	32	192	7
STR	32	288	5
SCR	32	288	5	96	96	0
TAP	33	192	3
TAP	33	192	5
STR	33	288	1
SCR	33	288	1	96	96	4
TAP	33	288	5
TAP	34	192	4
TAP	34	192	5
TAP	34	288	0
TAP	34	336	0
TAP	35	0	6
TAP	35	48	1
TAP	35	96	5
TAP	35	144	2
TAP	35	192	4
TAP	35	240	3
TAP	36	0	3
TAP	36	48	4
TAP	36	96	2
TAP	36	144	5
TAP	36	192	1
TAP	36	240	6
TAP	36	288	6
TAP	37	0	0
TAP	37	0	7
TAP	37	96	1
TAP	37	96	2
TAP	37	192	3
TAP	37	192	4
TAP	37	288	5
TAP	37	288	6
TAP	38	0	1
TAP	38	0	7
TAP	38	96	2
TAP	38	96	4
TAP	38	192	5
TAP	38	192	7
TAP	38	288	1
TAP	38	288	6
HLD	39	0	6	96
TAP	39	48	7
HLD	39	96	5	96
TAP	39	144	0
HLD	39	192	4	96
TAP	39	240	1
HLD	39	288	1	96
HLD	40	0	2	96
TAP	40	48	1
HLD	40	96	3	96
TAP	40	144	0
HLD	40	192	4	96
TAP	40	240	7
TAP	40	288	7
HLD	41	0	4	96
HLD	41	96	5	96
HLD	41	192	6	192
TAP	41	288	7
HLD	42	0	0	192
TAP	42	48	1
TAP	42	96	1
TAP	42	144	1
TAP	42	192	1
BRK	42	288	0
BRK	42	288	7
TAP	43	0	3
TAP	43	0	5
HLD	43	96	2	96
TAP	43	96	4
TAP	43	192	5
TAP	43	288	1
HLD	43	288	6	96
STR	44	0	0
SI_	44	0	0	96	96	5
STR	44	192	4
SI_	44	192	4	96	96	1
TAP	45	0	7
TAP	45	96	0
HLD	45	96	6	96
TAP	45	192	1
HLD	45	288	2	96
TAP	45	288	5
STR	46	0	4
SI_	46	0	4	96	96	1
STR	46	192	0
SI_	46	192	0	96	96	5
HLD	47	0	4	96
TAP	47	96	2
TAP	47	192	0
HLD	47	192	6	96
TAP	47	288	1
STR	48	0	5
SI_	48	0	5	96	96	2
STR	48	192	1
SCL	48	192	1	96	96	6
HLD	49	0	5	96
HLD	49	96	1	96
HLD	49	192	3	96
HLD	49	288	7	96
TAP	50	0	0
TAP	50	96	1
TAP	50	96	5
TAP	50	192	2
TAP	50	192	6
BRK	50	288	3
BRK	50	288	7
TAP	51	0	0
TAP	51	0	7
TAP	51	96	5
TAP	51	96	6
STR	51	192	3
SI_	51	192	3	96	48	0
TAP	51	192	4
TAP	52	0	4
STR	52	0	5
SCR	52	0	5	96	48	0
STR	52	192	2
SCL	52	192	2	96	48	7
TAP	52	192	3
TAP	53	0	0
TAP	53	0	7
TAP	53	96	1
TAP	53	96	2
TAP	53	192	3
STR	53	192	4
SI_	53	192	4	96	48	7
STR	54	0	6
SCL	54	0	6	96	48	3
TAP	54	0	7
TAP	54	192	0
STR	54	192	1
SCR	54	192	1	96	48	4
TAP	55	0	2
TAP	55	0	6
TAP	55	96	1
TAP	55	96	5
STR	55	192	0
SCR	55	192	0	96	48	3
STR	55	192	4
SCR	55	192	4	96	48	7
TAP	56	0	3
STR	56	0	4
SI_	56	0	4	96	48	7
STR	56	192	0
SI_	56	192	0	96	48	3
TAP	56	192	7
STR	57	0	6
SI_	57	0	6	96	48	2
STR	57	96	7
SI_	57	96	7	96	48	3
STR	57	192	0
SI_	57	192	0	96	48	4
STR	57	288	1
SI_	57	288	1	96	192	5
TAP	58	96	2
TAP	58	192	3
TAP	58	288	4
TAP	58	288	5

T_REC_TAP	215
T_REC_BRK	4
T_REC_XTP	0
T_REC_HLD	52
T_REC_XHO	0
T_REC_STR	26
T_REC_BST	0
T_REC_XST	0
T_REC_TTP	0
T_REC_THO	0
T_REC_SLD	26
T_REC_ALL	323
T_NUM_TAP	241
T_NUM_BRK	4
T_NUM_HLD	52
T_NUM_SLD	26
T_NUM_ALL	323
T_JUDGE_TAP	245
T_JUDGE_HLD	178
T_JUDGE_SLD	26
T_JUDGE_ALL	449
TTM_EACHPAIRS	72
TTM_SCR_TAP	120500
TTM_SCR_BRK	10400
TTM_SCR_HLD	52000
TTM_SCR_SLD	39000
TTM_SCR_ALL	221900
TTM_SCR_S	214900
TTM_SCR_SS	221500
TTM_RAT_ACV	10018

