VERSION	0.00.00	1.03.00
FES_MODE	0
BPM_DEF	140.000	140.000	140.000	140.000
MET_DEF	4	4
RESOLUTION	384
CLK_DEF	384
COMPATIBLE_CODE	MA2

BPM	0	0	140.000
MET	0	0	4	4

TAP	2	0	3
TAP	2	96	2
STR	2	192	1
SCL	2	192	1	96	96	6
TAP	3	96	6
TAP	3	96	7
TAP	3	192	0
TAP	3	288	1
TAP	4	0	0
TAP	4	96	1
STR	4	192	2
SCR	4	192	2	96	96	5
TAP	5	96	1
HLD	5	96	2	192
TAP	5	192	7
TAP	5	288	1
HLD	6	0	1	288
TAP	6	0	4
TAP	6	96	4
TAP	6	192	5
TAP	6	288	4
TAP	7	0	1
HLD	7	0	5	96
TAP	7	96	0
TAP	7	192	3
TAP	7	192	5
TAP	7	288	2
TAP	7	288	4
HLD	8	0	2	96
TAP	8	0	4
TAP	8	96	3
TAP	8	192	2
TAP	8	192	7
STR	8	288	4
SI_	8	288	4	96	96	1
TAP	8	288	5
TAP	9	96	0
TAP	9	192	2
TAP	9	192	6
BRK	9	288	0
BRK	9	288	1
TAP	10	0	1
TAP	10	0	3
TAP	10	96	2
TAP	10	96	4
TAP	10	192	3
TAP	10	192	5
TAP	10	288	3
TAP	10	288	4
HLD	11	0	6	96
TAP	11	0	7
TAP	11	96	5
TAP	11	192	2
TAP	11	192	4
TAP	11	288	3
TAP	11	288	5
HLD	12	0	4	192
TAP	12	0	5
TAP	12	96	2
HLD	12	192	3	96
TAP	12	288	4
TAP	13	0	4
TAP	13	0	5
TAP	13	96	2
TAP	13	96	3
TAP	13	192	3
HLD	13	192	4	96
TAP	13	240	3
TAP	14	0	2
TAP	14	0	5
TAP	14	96	1
TAP	14	96	6
TAP	14	192	0
TAP	14	192	7
TAP	14	288	1
TAP	14	288	6
TAP	15	0	0
HLD	15	0	7	96
TAP	15	96	5
HLD	15	192	0	96
TAP	15	192	7
TAP	15	288	2
HLD	16	0	2	96
TAP	16	96	7
TAP	16	192	0
TAP	16	192	5
TAP	16	288	2
TAP	16	288	7
TAP	17	0	1
TAP	17	96	2
STR	17	192	3
SCR	17	192	3	96	96	6
HLD	18	96	7	192
HLD	18	288	0	192
HLD	19	96	1	192
HLD	20	0	6	192
TAP	20	96	5
HLD	20	192	1	192
TAP	20	288	2
HLD	21	0	6	192
TAP	21	96	5
STR	21	192	4
SCL	21	192	4	96	96	1
HLD	22	96	0	96
HLD	22	192	7	96
STR	22	288	6
SI_	22	288	6	96	192	1
HLD	24	96	6	192
HLD	24	288	3	192
HLD	25	96	1	96
TAP	25	192	2
TAP	26	0	1
TAP	26	0	2
TAP	26	96	3
TAP	26	192	2
TAP	26	192	5
TAP	26	288	4
TAP	27	0	5
TAP	27	0	6
TAP	27	96	2
TAP	27	192	1
TAP	27	192	6
TAP	27	288	5
TAP	28	0	0
TAP	28	0	7
TAP	28	96	0
TAP	28	192	3
TAP	28	192	4
TAP	28	288	3
TAP	29	0	1
TAP	29	0	5
TAP	29	96	0
TAP	29	192	2
TAP	29	192	6
TAP	29	288	7
HLD	30	0	3	96
TAP	30	96	2
HLD	30	192	4	96
TAP	30	288	5
TAP	31	0	1
TAP	31	96	1
TAP	31	96	6
TAP	31	192	7
TAP	31	288	0
TAP	31	288	7
HLD	32	0	0	96
HLD	32	0	7	96
TAP	32	192	0
TAP	32	240	7
TAP	32	336	0
STR	33	0	3
SCR	33	0	3	96	192	6
STR	34	0	2
SCR	34	0	2	96	193	5
TAP	35	0	0
TAP	35	48	1
HLD	35	96	0	144
HLD	35	144	1	96
TAP	36	0	5
TAP	36	48	4
HLD	36	96	5	144
HLD	36	144	4	96
TAP	37	0	3
TAP	37	96	4
STR	37	192	5
SCR	37	192	5	96	48	0
STR	38	0	5
SI_	38	0	5	96	48	2
STR	38	192	1
SI_	38	192	1	96	48	6
TAP	39	0	2
TAP	39	48	5
HLD	39	96	2	144
HLD	39	144	5	96
TAP	40	0	2
TAP	40	48	3
HLD	40	96	2	144
HLD	40	144	3	96
STR	41	0	0
SCR	41	0	0	96	192	3
STR	41	0	7
SCL	41	0	7	96	191	4
TAP	42	0	3
TAP	42	48	4
TAP	42	96	3
TAP	42	144	4
TAP	42	192	0
BRK	42	288	0
BRK	42	288	1
TAP	43	0	3
TAP	43	96	2
STR	43	192	1
SCL	43	192	1	96	96	6
TAP	44	96	6
TAP	44	96	7
TAP	44	192	0
HLD	44	192	2	96
TAP	44	288	1
TAP	45	0	0
TAP	45	96	1
STR	45	192	2
SCR	45	192	2	96	96	5
TAP	46	96	1
HLD	46	96	2	192
TAP	46	192	7
TAP	46	288	1
HLD	47	0	1	288
TAP	47	0	4
TAP	47	96	4
TAP	47	192	5
TAP	47	288	4
TAP	48	0	1
HLD	48	0	5	96
TAP	48	96	0
TAP	48	192	3
TAP	48	192	5
TAP	48	288	2
TAP	48	288	4
HLD	49	0	2	96
TAP	49	0	4
TAP	49	96	3
TAP	49	192	2
TAP	49	192	7
STR	49	288	4
SI_	49	288	4	96	96	1
TAP	49	288	5
TAP	50	96	0
TAP	50	192	2
TAP	50	192	6
BRK	50	288	1
BRK	50	288	2
TAP	51	0	3
TAP	51	96	2
STR	51	192	1
SCL	51	192	1	96	96	6
TAP	52	0	1
TAP	52	96	6
TAP	52	96	7
TAP	52	192	0
HLD	52	192	2	96
TAP	52	288	1
TAP	53	0	0
TAP	53	96	1
STR	53	192	2
SCR	53	192	2	96	96	5
TAP	54	96	1
HLD	54	96	2	192
TAP	54	192	7
TAP	54	288	1
HLD	55	0	1	288
TAP	55	0	4
TAP	55	96	4
TAP	55	192	5
TAP	55	288	4
TAP	56	0	1
HLD	56	0	5	96
TAP	56	96	0
TAP	56	192	3
TAP	56	192	5
TAP	56	288	2
TAP	56	288	4
HLD	57	0	2	96
TAP	57	0	4
TAP	57	96	3
TAP	57	192	2
TAP	57	192	7
STR	57	288	4
SI_	57	288	4	96	96	1
TAP	57	288	5
TAP	58	96	0
TAP	58	192	2
TAP	58	192	6
BRK	58	288	0
BRK	58	288	1

T_REC_TAP	184
T_REC_BRK	8
T_REC_XTP	0
T_REC_HLD	44
T_REC_XHO	0
T_REC_STR	19
T_REC_BST	0
T_REC_XST	0
T_REC_TTP	0
T_REC_THO	0
T_REC_SLD	19
T_REC_ALL	274
T_NUM_TAP	203
T_NUM_BRK	8
T_NUM_HLD	44
T_NUM_SLD	19
T_NUM_ALL	274
T_JUDGE_TAP	211
T_JUDGE_HLD	128
T_JUDGE_SLD	19
T_JUDGE_ALL	358
TTM_EACHPAIRS	67
TTM_SCR_TAP	101500
TTM_SCR_BRK	20800
TTM_SCR_HLD	44000
TTM_SCR_SLD	28500
TTM_SCR_ALL	194800
TTM_SCR_S	188200
TTM_SCR_SS	194000
TTM_RAT_ACV	10041

