VERSION	0.00.00	1.03.00
FES_MODE	0
BPM_DEF	140.000	140.000	140.000	140.000
MET_DEF	4	4
RESOLUTION	384
CLK_DEF	384
COMPATIBLE_CODE	MA2

BPM	0	0	140.000
MET	0	0	4	4

TAP	2	192	0
TAP	3	192	0
TAP	3	192	1
TAP	4	192	2
TAP	5	192	2
TAP	5	192	3
TAP	6	192	4
TAP	7	192	4
TAP	7	192	5
TAP	8	192	6
TAP	9	0	7
TAP	9	96	0
TAP	9	192	0
TAP	9	288	0
TAP	9	288	7
TAP	10	96	0
TAP	10	192	1
TAP	10	288	0
TAP	11	0	1
TAP	11	96	2
STR	11	192	1
SI_	11	192	1	96	96	6
TAP	12	96	7
TAP	12	192	6
TAP	12	288	7
TAP	13	0	6
TAP	13	96	5
STR	13	192	6
SI_	13	192	6	96	96	1
TAP	14	96	3
TAP	14	192	2
TAP	14	288	3
TAP	15	0	2
TAP	15	96	1
STR	15	192	2
SI_	15	192	2	96	96	5
TAP	16	96	4
TAP	16	192	5
TAP	16	288	4
TAP	17	0	5
TAP	17	96	6
TAP	17	192	5
BRK	17	288	2
TAP	17	288	5
HLD	18	0	1	768
TAP	18	192	0
TAP	19	192	7
HLD	20	0	6	768
TAP	20	192	5
TAP	21	192	4
HLD	22	0	2	768
TAP	22	192	1
TAP	23	192	0
HLD	24	0	7	576
TAP	24	192	0
TAP	25	0	0
TAP	25	192	0
HLD	26	0	1	768
TAP	26	96	0
TAP	26	288	0
TAP	27	96	7
TAP	27	288	7
HLD	28	0	6	768
TAP	28	96	7
TAP	28	288	7
TAP	29	96	0
TAP	29	288	0
HLD	30	0	1	768
TAP	30	96	2
TAP	30	288	2
TAP	31	96	3
TAP	31	288	3
TAP	32	0	6
TAP	32	96	7
TAP	32	192	6
STR	32	288	5
SCR	32	288	5	96	192	0
STR	34	0	1
SCR	34	0	1	96	192	4
TAP	35	0	6
TAP	35	96	6
TAP	35	192	7
TAP	35	240	7
TAP	36	0	1
TAP	36	96	1
TAP	36	192	0
TAP	36	240	0
TAP	37	0	7
TAP	37	96	6
TAP	37	192	5
TAP	37	288	4
TAP	38	0	3
TAP	38	96	2
TAP	38	192	1
TAP	38	288	0
TAP	39	0	1
TAP	39	96	2
TAP	39	192	3
TAP	39	240	3
TAP	40	0	6
TAP	40	96	5
TAP	40	192	4
TAP	40	240	4
TAP	41	0	0
TAP	41	96	1
HLD	41	192	2	192
HLD	42	0	6	192
BRK	42	288	0
BRK	42	288	7
TAP	43	0	1
TAP	43	96	1
TAP	43	96	2
TAP	43	192	0
TAP	43	288	0
TAP	43	288	7
TAP	44	0	1
TAP	44	96	1
TAP	44	96	2
STR	44	192	0
SI_	44	192	0	96	96	4
TAP	45	96	5
TAP	45	96	6
TAP	45	192	7
TAP	45	288	0
TAP	45	288	7
TAP	46	0	6
TAP	46	96	5
TAP	46	96	6
STR	46	192	7
SI_	46	192	7	96	96	3
TAP	47	96	3
TAP	47	96	4
TAP	47	192	2
TAP	47	288	3
TAP	47	288	4
TAP	48	0	5
TAP	48	96	3
TAP	48	96	4
STR	48	192	2
SI_	48	192	2	96	96	7
TAP	49	96	5
TAP	49	96	6
TAP	49	192	7
TAP	49	288	0
TAP	49	288	7
TAP	50	0	1
TAP	50	96	1
TAP	50	96	2
STR	50	192	5
SI_	50	192	5	96	96	0
TAP	51	96	0
TAP	51	96	1
TAP	51	192	1
TAP	51	288	0
TAP	51	288	2
TAP	52	0	0
TAP	52	96	0
TAP	52	96	7
TAP	52	192	6
TAP	52	288	5
TAP	52	288	6
TAP	53	0	7
TAP	53	96	6
TAP	53	96	7
TAP	53	192	6
TAP	53	288	5
TAP	53	288	7
TAP	54	0	7
TAP	54	96	0
TAP	54	96	7
TAP	54	192	1
TAP	54	288	1
TAP	54	288	2
TAP	55	0	3
TAP	55	96	2
TAP	55	96	3
TAP	55	192	2
TAP	55	288	1
TAP	55	288	3
TAP	56	0	3
TAP	56	96	3
TAP	56	96	4
TAP	56	192	5
TAP	56	288	5
TAP	56	288	6
TAP	57	0	6
TAP	57	96	0
TAP	57	96	6
TAP	57	192	1
TAP	57	288	1
TAP	57	288	7
TAP	58	0	7
TAP	58	96	0
TAP	58	96	7
TAP	58	192	1
STR	58	288	1
SI_	58	288	1	96	192	6

T_REC_TAP	165
T_REC_BRK	3
T_REC_XTP	0
T_REC_HLD	9
T_REC_XHO	0
T_REC_STR	10
T_REC_BST	0
T_REC_XST	0
T_REC_TTP	0
T_REC_THO	0
T_REC_SLD	10
T_REC_ALL	197
T_NUM_TAP	175
T_NUM_BRK	3
T_NUM_HLD	9
T_NUM_SLD	10
T_NUM_ALL	197
T_JUDGE_TAP	178
T_JUDGE_HLD	116
T_JUDGE_SLD	10
T_JUDGE_ALL	304
TTM_EACHPAIRS	33
TTM_SCR_TAP	87500
TTM_SCR_BRK	7800
TTM_SCR_HLD	9000
TTM_SCR_SLD	15000
TTM_SCR_ALL	119300
TTM_SCR_S	115450
TTM_SCR_SS	119000
TTM_RAT_ACV	10025

