VERSION	0.00.00	1.03.00
FES_MODE	0
BPM_DEF	140.000	140.000	140.000	140.000
MET_DEF	4	4
RESOLUTION	384
CLK_DEF	384
COMPATIBLE_CODE	MA2

BPM	0	0	140.000
MET	0	0	4	4

TAP	2	0	2
TAP	2	96	1
HLD	2	192	1	192
TAP	3	192	0
TAP	3	288	1
TAP	4	0	2
TAP	4	96	3
HLD	4	192	3	192
TAP	5	192	1
TAP	5	288	7
TAP	6	0	1
TAP	6	96	2
HLD	6	192	2	192
TAP	7	192	0
TAP	7	288	0
TAP	8	0	1
TAP	8	96	2
TAP	8	96	5
TAP	8	192	3
TAP	8	192	4
STR	8	288	4
SI_	8	288	4	96	192	1
TAP	10	0	2
TAP	10	96	3
TAP	10	192	4
TAP	10	288	2
TAP	10	288	5
TAP	11	0	3
TAP	11	96	2
TAP	11	96	5
TAP	11	192	4
TAP	11	288	2
TAP	11	288	5
TAP	12	0	5
TAP	12	96	4
TAP	12	192	3
TAP	12	288	2
TAP	13	0	3
TAP	13	96	2
TAP	13	96	5
TAP	13	192	4
TAP	13	288	2
TAP	13	288	5
TAP	14	0	1
TAP	14	0	6
TAP	14	96	6
TAP	14	192	0
TAP	14	192	7
TAP	14	288	6
TAP	15	0	0
TAP	15	0	7
TAP	15	96	5
TAP	15	192	0
TAP	15	192	7
TAP	15	288	2
TAP	16	0	2
TAP	16	96	7
TAP	16	192	0
TAP	16	192	5
TAP	16	288	2
TAP	16	288	7
TAP	17	0	5
TAP	17	96	6
TAP	17	192	7
BRK	17	288	0
HLD	18	0	6	96
HLD	18	192	7	96
HLD	19	0	0	96
HLD	19	192	1	96
HLD	20	0	6	96
HLD	20	192	1	96
HLD	21	0	6	96
HLD	21	192	1	96
TAP	22	0	1
TAP	22	96	0
TAP	22	192	7
STR	22	288	6
SI_	22	288	6	96	192	1
HLD	24	0	6	96
HLD	24	192	3	96
TAP	25	0	6
TAP	25	96	7
TAP	25	192	1
TAP	25	192	2
TAP	26	0	1
TAP	26	0	6
TAP	26	192	2
TAP	27	0	1
TAP	27	0	6
TAP	27	192	2
TAP	28	0	3
TAP	28	0	4
TAP	28	192	2
TAP	28	192	5
TAP	29	0	2
TAP	29	0	3
TAP	29	192	4
TAP	29	192	5
HLD	30	96	2	96
HLD	30	288	5	96
HLD	31	96	1	96
HLD	31	96	6	96
HLD	31	288	0	96
HLD	31	288	7	96
TAP	32	96	1
TAP	32	96	6
TAP	32	192	6
TAP	32	288	1
HLD	33	0	3	192
HLD	33	0	4	192
STR	33	288	4
SI_	33	288	4	96	192	1
TAP	35	0	0
TAP	35	96	1
TAP	35	192	0
TAP	35	192	1
TAP	36	0	4
TAP	36	96	5
TAP	36	192	4
TAP	36	192	5
TAP	37	0	2
TAP	37	0	6
TAP	37	192	7
STR	37	288	6
SI_	37	288	6	96	192	1
TAP	39	0	6
TAP	39	96	2
TAP	39	192	2
TAP	39	192	6
TAP	40	0	3
TAP	40	96	2
TAP	40	192	2
TAP	40	192	3
TAP	41	0	0
TAP	41	0	7
TAP	41	96	1
TAP	41	96	6
HLD	41	192	3	96
HLD	41	192	4	96
TAP	42	0	5
TAP	42	96	2
TAP	42	192	0
BRK	42	288	0
STR	43	0	1
SI_	43	0	1	96	192	6
TAP	44	0	5
TAP	44	96	2
TAP	44	192	5
TAP	44	288	2
STR	45	0	3
SI_	45	0	3	96	192	6
TAP	46	0	6
TAP	46	96	7
TAP	46	192	6
TAP	46	288	7
TAP	47	0	1
TAP	47	96	1
TAP	47	192	1
TAP	47	192	5
TAP	47	288	1
TAP	48	0	0
TAP	48	96	1
HLD	48	192	0	96
HLD	49	0	0	96
TAP	49	192	5
STR	49	288	4
SI_	49	288	4	96	192	7
STR	51	0	1
SI_	51	0	1	96	192	6
TAP	52	0	5
TAP	52	96	2
TAP	52	192	5
TAP	52	288	2
STR	53	0	3
SI_	53	0	3	96	192	6
TAP	54	0	6
TAP	54	96	7
TAP	54	192	6
TAP	54	288	7
TAP	55	0	1
TAP	55	96	1
TAP	55	192	1
TAP	55	192	5
TAP	55	288	1
TAP	56	0	0
TAP	56	96	1
HLD	56	192	0	96
TAP	57	0	1
TAP	57	96	2
TAP	57	192	3
STR	57	288	4
SI_	57	288	4	96	192	1

T_REC_TAP	144
T_REC_BRK	2
T_REC_XTP	0
T_REC_HLD	26
T_REC_XHO	0
T_REC_STR	10
T_REC_BST	0
T_REC_XST	0
T_REC_TTP	0
T_REC_THO	0
T_REC_SLD	10
T_REC_ALL	192
T_NUM_TAP	154
T_NUM_BRK	2
T_NUM_HLD	26
T_NUM_SLD	10
T_NUM_ALL	192
T_JUDGE_TAP	156
T_JUDGE_HLD	62
T_JUDGE_SLD	10
T_JUDGE_ALL	228
TTM_EACHPAIRS	34
TTM_SCR_TAP	77000
TTM_SCR_BRK	5200
TTM_SCR_HLD	26000
TTM_SCR_SLD	15000
TTM_SCR_ALL	123200
TTM_SCR_S	119350
TTM_SCR_SS	123000
TTM_RAT_ACV	10016

