VERSION	0.00.00	1.03.00
FES_MODE	0
BPM_DEF	144.000	144.000	144.000	144.000
MET_DEF	4	4
RESOLUTION	384
CLK_DEF	384
COMPATIBLE_CODE	MA2

BPM	0	0	144.000
MET	0	0	4	4

TAP	2	0	1
TAP	2	0	7
TAP	2	72	4
TAP	2	72	5
TAP	2	144	2
TAP	2	144	4
TAP	2	216	6
TAP	2	216	7
TAP	2	288	0
TAP	2	288	1
TAP	2	360	3
BST	2	360	5
SCR	2	360	5	96	216	2
TAP	4	0	5
TAP	4	0	7
TAP	4	72	0
TAP	4	72	2
TAP	4	240	5
TAP	4	288	4
TAP	4	336	3
TAP	5	0	2
TAP	5	96	1
STR	5	192	0
SI_	5	192	0	96	48	4
BRK	5	288	0
TAP	6	0	2
TAP	6	0	7
TAP	6	72	0
TAP	6	96	0
TAP	6	144	1
TAP	6	144	7
TAP	6	192	3
TAP	6	192	5
TAP	6	264	7
TAP	6	288	7
TAP	6	336	0
TAP	6	336	6
TAP	7	0	2
TAP	7	0	4
TAP	7	48	3
TAP	7	96	3
TAP	7	96	5
TAP	7	144	4
TAP	7	144	6
TAP	7	192	5
STR	7	192	7
SI_	7	192	7	96	48	3
TAP	8	0	0
TAP	8	0	5
TAP	8	72	7
TAP	8	96	7
TAP	8	144	0
TAP	8	144	6
TAP	8	192	2
TAP	8	192	4
TAP	8	240	3
TAP	8	264	4
TAP	8	288	3
TAP	8	336	1
TAP	8	336	7
TAP	9	0	3
TAP	9	0	5
TAP	9	48	4
TAP	9	96	2
TAP	9	96	4
TAP	9	144	1
TAP	9	144	3
STR	9	192	0
SI_	9	192	0	96	48	4
TAP	9	192	2
HLD	10	0	6	192
TAP	10	96	7
TAP	10	144	0
HLD	10	192	1	192
TAP	10	288	0
TAP	10	336	7
TAP	11	0	6
TAP	11	48	5
TAP	11	48	7
TAP	11	96	0
TAP	11	96	4
TAP	11	144	1
TAP	11	144	3
TAP	11	192	2
TAP	11	288	7
TAP	11	336	0
STR	12	0	1
SCR	12	0	1	96	96	5
TAP	12	96	0
TAP	12	144	7
STR	12	192	6
SCL	12	192	6	96	96	2
TAP	12	288	7
TAP	12	336	0
STR	13	0	1
SCL	13	0	1	96	96	6
STR	13	96	6
SCL	13	96	6	96	96	3
TAP	13	192	3
STR	14	0	0
SI_	14	0	0	96	48	5
STR	14	0	1
SI_	14	0	1	96	48	4
TAP	14	48	2
TAP	14	48	7
BRK	14	96	0
BRK	14	96	1
TAP	14	192	3
TAP	14	216	6
TAP	14	240	2
TAP	14	264	7
TAP	14	288	1
TAP	14	336	0
TAP	14	336	1
STR	15	0	6
SI_	15	0	6	96	48	3
STR	15	0	7
SI_	15	0	7	96	48	2
TAP	15	48	0
TAP	15	48	5
BRK	15	96	6
BRK	15	96	7
TAP	15	192	4
TAP	15	216	1
TAP	15	240	5
TAP	15	264	0
TAP	15	288	6
TAP	15	336	6
TAP	15	336	7
TAP	16	0	0
TAP	16	0	1
TAP	16	72	3
TAP	16	96	3
TAP	16	144	2
TAP	16	192	1
TAP	16	240	0
TAP	16	240	7
TAP	16	288	1
TAP	16	288	6
TAP	16	336	2
TAP	16	336	5
STR	17	0	3
SXR	17	0	3	96	192	0
STR	17	0	4
SXL	17	0	4	96	192	7
TAP	17	72	3
TAP	17	72	4
BRK	17	96	3
BRK	17	96	4
TAP	17	336	1
TAP	17	360	6
TAP	18	0	1
TAP	18	48	2
TAP	18	96	3
TAP	18	96	7
TAP	18	144	4
TAP	18	192	6
TAP	18	240	5
TAP	18	288	0
TAP	18	288	4
TAP	18	336	3
TAP	19	0	1
TAP	19	48	1
TAP	19	72	0
TAP	19	96	1
TAP	19	144	6
TAP	19	168	7
HLD	19	192	6	96
TAP	20	0	2
TAP	20	0	3
TAP	20	72	4
TAP	20	96	1
TAP	20	96	4
TAP	20	144	5
STR	20	192	0
SI_	20	192	0	96	48	4
HLD	20	192	6	96
TAP	21	0	3
TAP	21	0	5
TAP	21	48	3
TAP	21	96	2
TAP	21	96	6
TAP	21	144	2
HLD	21	192	1	96
STR	21	192	7
SI_	21	192	7	96	48	3
TAP	22	0	1
TAP	22	72	0
TAP	22	96	0
TAP	22	144	1
TAP	22	144	7
TAP	22	192	2
STR	22	192	6
SCL	22	192	6	96	96	3
STR	22	288	3
SCL	22	288	3	96	96	0
STR	23	0	0
SCL	23	0	0	96	192	2
TAP	23	288	0
TAP	24	0	0
TAP	24	48	1
TAP	24	96	2
TAP	24	144	3
TAP	24	192	4
TAP	24	240	3
TAP	24	240	5
TAP	24	288	2
TAP	24	288	6
TAP	24	336	1
TAP	24	336	7
STR	25	0	0
SUL	25	0	0	96	48	4
SUR	25	0	0	96	48	4
STR	25	192	7
SUL	25	192	7	96	48	3
SUR	25	192	7	96	48	3
TAP	26	0	0
TAP	26	48	1
TAP	26	96	2
TAP	26	144	3
TAP	26	144	7
TAP	26	240	0
TAP	26	240	4
TAP	26	288	0
TAP	26	288	4
STR	27	0	1
SCL	27	0	1	96	192	2
HLD	27	0	6	288
TAP	28	0	5
TAP	28	0	7
TAP	28	72	4
TAP	28	96	0
TAP	28	96	4
TAP	28	144	3
HLD	28	192	1	96
STR	28	192	2
SI_	28	192	2	96	48	7
TAP	29	0	0
TAP	29	0	1
TAP	29	48	2
TAP	29	96	3
TAP	29	96	7
TAP	29	144	4
STR	29	192	5
SI_	29	192	5	96	48	0
HLD	29	192	6	96
TAP	30	0	6
TAP	30	72	7
TAP	30	96	7
TAP	30	144	0
TAP	30	144	6
STR	30	192	1
SCR	30	192	1	96	96	4
TAP	30	192	5
STR	30	288	4
SCR	30	288	4	96	96	7
STR	31	0	7
SCR	31	0	7	96	192	5
TAP	31	288	7
HLD	32	0	7	192
TAP	32	96	0
TAP	32	144	1
HLD	32	192	2	192
TAP	32	240	3
TAP	32	288	4
TAP	32	336	5
STR	33	0	6
SUL	33	0	6	96	48	2
SUR	33	0	6	96	48	2
STR	33	192	1
SUL	33	192	1	96	48	5
SUR	33	192	1	96	48	5
STR	34	0	6
SI_	34	0	6	96	48	3
STR	34	0	7
SI_	34	0	7	96	48	2
TAP	34	48	0
TAP	34	48	5
BRK	34	96	6
BRK	34	96	7
STR	34	192	0
SI_	34	192	0	96	48	5
STR	34	192	1
SI_	34	192	1	96	48	4
TAP	34	240	2
TAP	34	240	7
BRK	34	288	0
BRK	34	288	1
BRK	35	0	1
BRK	35	0	6
TAP	35	192	0
TAP	35	216	7
TAP	35	240	1
TAP	35	264	6
TAP	35	288	2
TAP	35	312	5
TAP	35	336	3
TAP	35	360	4
TAP	36	0	2
TAP	36	24	5
TAP	36	48	1
TAP	36	72	6
STR	36	96	0
SI_	36	96	0	96	48	4
BST	36	192	0
SCL	36	192	0	96	48	5
SCR	36	192	0	96	48	3
BST	36	288	0
SF_	36	288	0	96	48	4
BRK	37	0	0
TAP	37	192	0
TAP	37	192	7
TAP	37	288	0
TAP	37	288	1
TAP	37	336	3
TAP	37	336	6
HLD	38	0	0	96
HLD	38	0	1	96
TAP	38	192	3
STR	38	192	6
SI_	38	192	6	96	48	3
STR	38	288	0
SI_	38	288	0	96	48	4
TAP	38	288	6
BRK	39	0	0
HLD	39	0	7	96
TAP	39	144	1
TAP	39	192	0
TAP	39	192	5
TAP	39	240	2
TAP	39	240	7
TAP	39	288	1
TAP	39	288	4
TAP	39	336	3
TAP	39	336	6
HLD	40	0	0	96
TAP	40	0	5
STR	40	96	7
SI_	40	96	7	96	48	3
BST	40	192	7
SCL	40	192	7	96	48	4
SCR	40	192	7	96	48	2
BST	40	288	7
SF_	40	288	7	96	48	3
BRK	41	0	7
TAP	41	192	0
TAP	41	192	7
TAP	41	288	6
TAP	41	288	7
TAP	41	336	1
TAP	41	336	4
STR	42	0	6
SCL	42	0	6	96	96	3
STR	42	0	7
SCR	42	0	7	96	96	2
TAP	42	288	6
TAP	42	336	7
HLD	43	0	0	96
HLD	43	0	5	96
TAP	43	144	6
TAP	43	192	2
TAP	43	192	7
TAP	43	240	0
TAP	43	240	5
TAP	43	288	3
TAP	43	288	6
TAP	43	336	1
TAP	43	336	4
TAP	44	0	2
HLD	44	0	7	96
STR	44	96	1
SI_	44	96	1	96	48	5
BST	44	192	1
SCL	44	192	1	96	48	6
SCR	44	192	1	96	48	4
BST	44	288	1
SF_	44	288	1	96	48	5
BRK	45	0	1
TAP	45	192	3
TAP	45	192	7
TAP	45	288	0
TAP	45	288	2
TAP	45	336	4
TAP	45	336	6
HLD	46	0	0	96
HLD	46	0	2	96
TAP	46	192	3
STR	46	192	6
SCL	46	192	6	96	48	3
STR	46	288	0
SI_	46	288	0	96	48	4
TAP	46	288	6
BRK	47	0	0
HLD	47	0	7	96
TAP	47	144	1
TAP	47	192	5
TAP	47	192	7
TAP	47	240	0
TAP	47	240	2
TAP	47	288	1
TAP	47	288	3
TAP	47	336	4
TAP	47	336	6
TAP	48	0	5
HLD	48	0	7	96
STR	48	96	6
SI_	48	96	6	96	48	2
BST	48	192	6
SCL	48	192	6	96	48	3
SCR	48	192	6	96	48	1
BST	48	288	6
SF_	48	288	6	96	48	2
BRK	49	0	6
TAP	49	192	0
TAP	49	192	4
TAP	49	288	4
TAP	49	288	6
TAP	49	336	0
TAP	49	336	2
STR	50	0	4
SI_	50	0	4	96	96	0
STR	50	0	6
SI_	50	0	6	96	96	2
TAP	50	288	3
TAP	50	336	2
STR	51	0	1
SI_	51	0	1	96	48	4
STR	51	0	5
SI_	51	0	5	96	48	0
BRK	51	204	3
BRK	51	204	7
BRK	51	268	2
BRK	51	268	6
BRK	51	328	1
BRK	51	328	5
BST	52	0	0
SXL	52	0	0	96	480	3
BST	52	0	4
SXL	52	0	4	96	480	7
BRK	52	96	0
BRK	52	96	4
HLD	54	0	1	48
HLD	54	0	7	48
HLD	54	72	3	48
HLD	54	72	5	48
HLD	54	144	0	48
HLD	54	144	6	48
HLD	54	216	2	48
HLD	54	216	4	48
HLD	54	288	1	48
HLD	54	288	6	48
BST	54	360	3
SCL	54	360	3	96	216	4
BST	54	360	4
SCR	54	360	4	96	216	3
TAP	56	0	5
TAP	56	0	7
STR	56	72	0
SI_	56	72	0	96	72	5
STR	56	72	2
SI_	56	72	2	96	72	7
TAP	57	4	0
TAP	57	4	4
TAP	57	56	2
TAP	57	56	6
TAP	57	144	3
TAP	57	144	7
TAP	57	200	1
TAP	57	200	5
BRK	57	292	0
BRK	57	292	7
BRK	57	348	3
BRK	57	348	4

T_REC_TAP	281
T_REC_BRK	31
T_REC_XTP	0
T_REC_HLD	31
T_REC_XHO	0
T_REC_STR	48
T_REC_BST	13
T_REC_XST	0
T_REC_TTP	0
T_REC_THO	0
T_REC_SLD	69
T_REC_ALL	473
T_NUM_TAP	329
T_NUM_BRK	44
T_NUM_HLD	31
T_NUM_SLD	69
T_NUM_ALL	473
T_JUDGE_TAP	373
T_JUDGE_HLD	64
T_JUDGE_SLD	69
T_JUDGE_ALL	506
TTM_EACHPAIRS	132
TTM_SCR_TAP	164500
TTM_SCR_BRK	114400
TTM_SCR_HLD	31000
TTM_SCR_SLD	103500
TTM_SCR_ALL	413400
TTM_SCR_S	396750
TTM_SCR_SS	409000
TTM_RAT_ACV	10107

