VERSION	0.00.00	1.03.00
FES_MODE	0
BPM_DEF	144.000	144.000	144.000	144.000
MET_DEF	4	4
RESOLUTION	384
CLK_DEF	384
COMPATIBLE_CODE	MA2

BPM	0	0	144.000
MET	0	0	4	4

STR	1	288	3
SI_	1	288	3	96	288	0
STR	3	288	7
SI_	3	288	7	96	288	4
HLD	6	0	1	96
TAP	6	0	6
TAP	6	96	2
TAP	6	192	1
HLD	6	192	6	96
TAP	6	288	5
HLD	7	0	1	96
TAP	7	0	6
TAP	7	96	2
TAP	7	192	1
HLD	7	192	6	96
TAP	7	288	5
HLD	8	0	0	96
TAP	8	0	5
TAP	8	96	1
TAP	8	192	2
HLD	8	192	7	96
TAP	8	288	6
HLD	9	0	0	96
TAP	9	0	5
TAP	9	96	1
TAP	9	192	2
HLD	9	192	7	96
TAP	9	288	6
HLD	10	0	0	96
STR	10	96	1
SCL	10	96	1	96	96	6
TAP	11	0	6
TAP	11	0	7
TAP	11	96	2
TAP	11	96	3
TAP	11	192	4
TAP	11	192	5
TAP	11	288	1
STR	12	0	1
SCR	12	0	1	96	48	4
STR	12	192	5
SCR	12	192	5	96	48	0
STR	13	0	7
SCL	13	0	7	96	48	4
STR	13	192	3
SCL	13	192	3	96	48	0
STR	14	0	6
SI_	14	0	6	96	96	3
TAP	14	48	6
STR	14	96	7
SI_	14	96	7	96	96	2
STR	15	0	2
SI_	15	0	2	96	96	7
TAP	15	48	2
STR	15	96	3
SI_	15	96	3	96	96	6
HLD	16	0	1	288
TAP	16	96	2
TAP	16	192	7
TAP	16	288	6
TAP	17	0	3
TAP	17	0	4
HLD	17	96	1	192
HLD	17	96	5	192
HLD	18	0	6	96
HLD	18	96	5	96
HLD	18	192	4	96
HLD	18	288	3	96
TAP	19	0	2
BRK	19	96	1
TAP	19	96	2
TAP	19	192	6
BRK	19	192	7
HLD	20	0	1	96
TAP	20	0	5
TAP	20	96	0
HLD	20	192	2	96
TAP	20	192	4
TAP	20	288	0
TAP	21	0	2
HLD	21	0	6	96
TAP	21	96	7
TAP	21	192	3
HLD	21	192	5	96
TAP	21	288	7
HLD	22	0	1	672
HLD	22	0	7	96
TAP	22	192	6
STR	22	288	2
SI_	22	288	2	96	192	6
HLD	24	0	2	288
TAP	24	0	3
TAP	24	96	4
TAP	24	192	3
TAP	24	288	1
TAP	25	0	4
HLD	25	0	5	288
TAP	25	96	3
TAP	25	192	4
TAP	25	288	6
TAP	26	0	2
TAP	26	96	5
TAP	26	192	1
TAP	26	192	6
TAP	26	288	2
TAP	26	288	5
STR	27	0	0
SCR	27	0	0	96	96	3
STR	27	0	7
SCL	27	0	7	96	96	4
TAP	28	0	2
HLD	28	0	7	96
TAP	28	96	0
HLD	28	192	0	96
TAP	28	192	5
TAP	28	288	7
TAP	29	0	0
HLD	29	0	7	96
TAP	29	96	2
HLD	29	192	0	96
TAP	29	192	7
TAP	29	288	5
HLD	30	0	4	384
TAP	30	96	5
TAP	30	192	6
TAP	30	288	7
HLD	31	0	3	288
TAP	31	96	2
TAP	31	192	1
TAP	31	288	0
TAP	32	0	0
HLD	32	0	4	96
TAP	32	96	5
HLD	32	192	5	96
TAP	32	192	7
TAP	32	288	2
HLD	33	0	3	96
TAP	33	0	7
TAP	33	96	2
TAP	33	192	0
HLD	33	192	2	96
TAP	33	288	5
HLD	34	0	1	96
HLD	34	0	6	768
TAP	34	192	0
STR	34	288	4
SI_	34	288	4	96	192	7
BRK	36	192	3
BRK	36	192	4
STR	36	288	6
SI_	36	288	6	96	48	3
STR	36	288	7
SI_	36	288	7	96	48	2
TAP	37	192	7
TAP	37	288	1
TAP	37	288	5
TAP	38	0	0
TAP	38	96	2
TAP	38	96	6
TAP	38	192	2
BRK	38	192	5
STR	38	288	0
SI_	38	288	0	96	48	5
BRK	38	288	7
STR	39	96	7
SI_	39	96	7	96	48	2
STR	39	288	1
SCL	39	288	1	96	96	6
TAP	40	192	0
TAP	40	192	7
STR	40	288	2
SI_	40	288	2	96	48	7
STR	40	288	3
SI_	40	288	3	96	48	6
TAP	41	192	0
TAP	41	288	2
TAP	41	288	6
TAP	42	0	7
TAP	42	96	1
TAP	42	96	5
TAP	42	192	2
TAP	42	288	0
TAP	42	288	4
TAP	43	0	5
STR	43	96	3
SCL	43	96	3	96	96	0
TAP	43	96	7
STR	43	288	7
SCL	43	288	7	96	96	4
BRK	44	192	3
BRK	44	192	4
STR	44	288	6
SI_	44	288	6	96	48	3
STR	44	288	7
SI_	44	288	7	96	48	2
STR	45	96	4
SI_	45	96	4	96	48	1
STR	45	288	0
SI_	45	288	0	96	48	5
STR	46	96	7
SI_	46	96	7	96	48	2
STR	46	288	3
SI_	46	288	3	96	48	0
STR	46	288	4
SI_	46	288	4	96	48	7
STR	47	96	1
SI_	47	96	1	96	48	6
STR	47	96	2
SI_	47	96	2	96	48	5
STR	47	288	7
SCR	47	288	7	96	96	2
TAP	48	192	0
TAP	48	192	7
STR	48	288	2
SI_	48	288	2	96	48	7
STR	48	288	3
SI_	48	288	3	96	48	6
STR	49	96	3
SI_	49	96	3	96	48	6
STR	49	288	7
SI_	49	288	7	96	48	2
STR	50	96	0
SI_	50	96	0	96	48	5
STR	50	288	0
SCR	50	288	0	96	192	3
STR	50	288	7
SCL	50	288	7	96	192	4
STR	51	288	6
SCR	51	288	6	96	192	1
STR	53	288	4
SI_	53	288	4	96	288	7
STR	55	288	0
SI_	55	288	0	96	288	3
STR	55	288	7
SI_	55	288	7	96	288	4

T_REC_TAP	101
T_REC_BRK	8
T_REC_XTP	0
T_REC_HLD	36
T_REC_XHO	0
T_REC_STR	45
T_REC_BST	0
T_REC_XST	0
T_REC_TTP	0
T_REC_THO	0
T_REC_SLD	45
T_REC_ALL	235
T_NUM_TAP	146
T_NUM_BRK	8
T_NUM_HLD	36
T_NUM_SLD	45
T_NUM_ALL	235
T_JUDGE_TAP	154
T_JUDGE_HLD	124
T_JUDGE_SLD	45
T_JUDGE_ALL	323
TTM_EACHPAIRS	54
TTM_SCR_TAP	73000
TTM_SCR_BRK	20800
TTM_SCR_HLD	36000
TTM_SCR_SLD	67500
TTM_SCR_ALL	197300
TTM_SCR_S	190650
TTM_SCR_SS	196500
TTM_RAT_ACV	10040

